<?xml version="1.0" standalone="no"?>
<!DOCTYPE svg PUBLIC "-//W3C//DTD SVG 1.1//EN" "http://www.w3.org/Graphics/SVG/1.1/DTD/svg11.dtd" >
<svg xmlns="http://www.w3.org/2000/svg" xmlns:xlink="http://www.w3.org/1999/xlink" version="1.1">
<metadata>
Created by FontForge 20161003 at Wed Jul 17 03:11:09 2019
 By www-data
</metadata>
<defs>
<font id="RMTaina" horiz-adv-x="502" >
  <font-face 
    font-family="RMTaina"
    font-weight="400"
    font-stretch="normal"
    units-per-em="1000"
    panose-1="2 0 5 3 2 0 0 2 0 3"
    ascent="800"
    descent="-200"
    x-height="449"
    cap-height="683"
    bbox="-166 -216 1012 880"
    underline-thickness="100"
    underline-position="-273"
    unicode-range="U+0005-E009"
  />
<missing-glyph horiz-adv-x="500" 
 />
    <glyph glyph-name=".notdef" horiz-adv-x="500" 
 />
    <glyph glyph-name=".null" horiz-adv-x="0" 
 />
    <glyph glyph-name="FL263" horiz-adv-x="500" 
 />
    <glyph glyph-name="space" unicode=" " horiz-adv-x="251" 
 />
    <glyph glyph-name="space" unicode="&#xa0;" horiz-adv-x="251" 
 />
    <glyph glyph-name="breve" horiz-adv-x="334" 
d="M27 665h15q16 -29 37 -42q35 -21 89 -21t88 21q26 14 35 42h16q-4 -60 -45 -99q-40 -38 -95 -38q-54 0 -94 38q-41 38 -46 99z" />
    <glyph glyph-name="dotaccent" horiz-adv-x="334" 
d="M168 655q11 0 20.5 -4t17 -11.5t11.5 -17t4 -20.5t-4 -21t-11.5 -17t-17 -11.5t-20.5 -4.5t-21 4.5t-17.5 11.5t-11.5 17t-4 21t4 20.5t11.5 17t17 11.5t21.5 4z" />
    <glyph glyph-name="ring" horiz-adv-x="334" 
d="M167 698q39 0 66.5 -27.5t27.5 -66.5t-27.5 -66.5t-66.5 -27.5t-66.5 27.5t-27.5 66.5t27 66q28 28 67 28zM167 664q-25 0 -43 -18q-17 -17 -17 -42q0 -24 17 -42q18 -18 43 -18q26 0 42 18q18 18 18 42q0 26 -18 42q-16 18 -42 18z" />
    <glyph glyph-name="hungarumlaut" unicode="&#xa;" horiz-adv-x="334" 
d="M71 681h91l-108 -169h-16zM224 681h92l-107 -169h-17z" />
    <glyph glyph-name="ogonek" horiz-adv-x="334" 
d="M112 8h25q-13 -25 -13 -48q0 -41 26 -64q34 -31 79 -31q28 0 59 11l10 -16q-22 -12 -38 -19.5t-27 -10.5q-22 -7 -48 -7q-54 0 -83 26.5t-29 63.5q0 27 10.5 53t28.5 42z" />
    <glyph glyph-name="caron" horiz-adv-x="334" 
d="M213 516h-91l-93 163h16l133 -104l113 104h14z" />
    <glyph glyph-name="dotlessi" unicode="&#xd;" horiz-adv-x="279" 
d="M186 462v-361q0 -43 6 -56q7 -14 18 -21q13 -6 44 -6v-18h-218v18q34 0 44 6q12 7 18 21q7 15 7 56v173q0 74 -5 95q-3 16 -10.5 22t-19.5 6q-14 0 -34 -7l-7 17l136 55h21z" />
    <glyph glyph-name="fraction" horiz-adv-x="168" 
d="M335 678l-457 -703h-44l457 703h44z" />
    <glyph glyph-name="fi" horiz-adv-x="558" 
d="M180 449h187q55 0 72 3h21v-348q0 -55 13 -70t59 -16v-18h-224v18q48 0 62 21q10 15 10 65v237q0 46 -5 55q-4 8 -15 12t-71 4h-109v-292q0 -53 6 -69q4 -12 18 -20q21 -13 37 -13h21v-18h-245v18h17q34 0 50 18q15 19 15 84v292h-87v37h87q0 89 24 139q25 51 74 80
t110 29q41 0 76 -14q17 -7 29.5 -16t21 -19.5t12.5 -21t4 -20.5q0 -17 -11 -28t-26 -11q-16 0 -28 8q-12 9 -40 49q-17 23 -34 33q-14 7 -35 7q-24 0 -50 -20q-24 -19 -33 -46q-13 -36 -13 -123v-26z" />
    <glyph glyph-name="fl" horiz-adv-x="558" 
d="M381 412h-202v-291q0 -52 8 -70q7 -16 24 -25t52 -8v-18h-247v18h20q28 0 45 15.5t17 84.5v294h-87v37h87q4 99 24 145q21 47 65 75t88 28q50 0 98 -37l69 37h20v-593q0 -45 4 -58q3 -6 7.5 -11.5t12 -9t19 -5.5t28.5 -2v-18h-223v18q33 1 49 9q10 6 16 19t6 58v308z
M381 449v146q-15 -18 -34 -18q-22 0 -51 41q-28 41 -57 41q-17 0 -28 -9q-17 -15 -26 -42q-6 -21 -6 -115v-44h202z" />
    <glyph glyph-name="Lslash" horiz-adv-x="613" 
d="M532 0h-514v18h21q22 0 45 11q16 8 22 24t6 66v147l-101 -82v45l101 86v230q0 55 -5.5 68.5t-22 23t-45.5 9.5h-21v18h295v-18h-29q-35 0 -51.5 -11t-22.5 -33q-4 -10 -4 -57v-153l111 92v-46l-111 -95v-221q0 -44 6 -55q5 -12 20 -18q11 -6 56 -6h74q71 0 95 7
q33 10 63.5 42t51.5 92l15 -4z" />
    <glyph glyph-name="lslash" horiz-adv-x="279" 
d="M186 697v-298l84 69v-42l-84 -69v-256q0 -48 5 -58q5 -12 17 -17q18 -9 50 -8v-18h-227v18l13 -1q25 0 40 9q12 7 16 19q6 13 6 61v186l-91 -75v41l91 76v174q0 73 -5 91q-2 12 -11.5 20t-20.5 8q-8 0 -33 -8l-5 17l140 61h15z" />
    <glyph glyph-name="Zcaron" horiz-adv-x="613" 
d="M577 664l-436 -624h272q63 0 96 28q34 27 60 111l16 -3l-31 -176h-541v18l426 607h-213q-52 0 -77 -12q-23 -11 -36 -33q-12 -21 -22 -82h-19l14 166h491zM360 716h-91l-93 163h16l133 -104l113 104h14z" />
    <glyph glyph-name="zcaron" horiz-adv-x="445" 
d="M421 138l-5 -138h-396v18l298 397h-147q-48 0 -62 -7q-14 -6 -24 -23q-13 -23 -15 -61h-20l3 125h376v-18l-301 -398h164q50 0 70 8q18 9 29 31q9 15 14 66h16zM276 516h-91l-93 163h16l133 -104l113 104h14z" />
    <glyph glyph-name="exclam" unicode="!" horiz-adv-x="334" 
d="M176 176h-18l-43 397q-3 26 -3 38q0 16 4.5 28.5t12 21.5t17.5 14t22 5q23 0 38.5 -19t15.5 -55q0 -6 -0.5 -14t-1.5 -19zM167 95q23 0 38 -17q16 -15 16 -37q0 -12 -4.5 -21.5t-12 -16.5t-17 -11.5t-20.5 -4.5q-12 0 -21.5 4.5t-17 11.5t-12 16.5t-4.5 21.5q0 22 16 37
q16 17 39 17z" />
    <glyph glyph-name="quotedbl" unicode="&#x22;" horiz-adv-x="410" 
d="M282 393l-26 144l-11 59q-1 6 -1 12v12q0 31 13.5 45.5t36.5 14.5q21 0 35 -14.5t14 -38.5q0 -21 -2 -43.5t-7 -46.5l-28 -144h-24zM103 393l-27 145q-5 30 -8 50.5t-3 31.5q0 31 13 45.5t35 14.5t36 -14.5t14 -38.5q0 -10 -3 -32t-10 -57l-26 -145h-21z" />
    <glyph glyph-name="numbersign" unicode="#" 
d="M56 -13l46 222h-84v40h92l34 168h-126v40h135l44 223h41l-44 -223h165l47 223h41l-47 -223h84v-40h-91l-34 -168h125v-40h-134l-45 -222h-40l45 222h-166l-47 -222h-41zM151 249h166l35 168h-167z" />
    <glyph glyph-name="dollar" unicode="$" 
d="M53 164h21q6 -68 42.5 -103.5t109.5 -42.5v286q-110 69 -147 121q-26 38 -26 90q0 61 45 105.5t128 54.5v45h32v-45q20 -1 37 -3.5t30 -5.5q15 -4 94 -34v-146h-19q-7 78 -40 113q-35 37 -102 43v-249q123 -86 158 -127q35 -40 35 -101q0 -68 -51 -119q-51 -50 -142 -59
v-62h-32v62q-46 2 -85 11q-41 7 -88 27v139zM226 414v228q-49 -6 -72.5 -31.5t-23.5 -63.5q0 -35 21 -67q22 -31 75 -66zM258 18q36 7 56 18q28 17 43.5 45t15.5 59q0 33 -19 61q-20 30 -96 82v-265z" />
    <glyph glyph-name="percent" unicode="%" horiz-adv-x="836" 
d="M682 680l-484 -706h-44l484 706h44zM178 680q67 0 103 -55t36 -126q0 -85 -41 -132t-99 -47q-39 0 -71 21.5t-52 63.5q-19 42 -19 94t20 94q10 22 23.5 38.5t30 27t34.5 16t35 5.5zM177 652q-25 0 -45 -29q-19 -30 -19 -124q0 -68 11 -104q8 -26 26 -41q10 -9 25 -9
q24 0 41 25q24 38 24 126q0 94 -24 131q-15 25 -39 25zM659 330q35 0 70 -22q17 -11 30.5 -27.5t22.5 -37t14 -44t5 -48.5q0 -87 -42 -132q-41 -45 -98 -45q-36 0 -69.5 21.5t-53 62t-19.5 93.5q0 51 19 94q10 22 24 37.5t30 26t33 16t34 5.5zM660 304q-24 0 -41 -27
q-22 -34 -22 -130q0 -88 23 -122q17 -25 40 -25t40 27q24 36 24 123q0 92 -24 129q-16 25 -40 25z" />
    <glyph glyph-name="ampersand" unicode="&#x26;" horiz-adv-x="780" 
d="M512 428h206v-18q-43 -4 -63 -20q-21 -15 -64 -93q-43 -77 -97 -145q44 -52 78 -72q35 -20 69 -20t57.5 18.5t33.5 54.5l18 -13q-18 -70 -58 -102t-94 -32q-20 0 -40 5t-41.5 16t-43.5 29t-47 44q-61 -54 -109 -74q-49 -20 -104 -20q-81 0 -129 42q-47 43 -47 103
q0 59 42 118q43 59 161 122q-12 26 -20 47t-12 37t-6 31.5t-2 30.5q0 84 62 128q47 35 109 35q58 0 95 -35t37 -85q0 -52 -36 -91q-18 -20 -49 -41t-77 -45q32 -56 64.5 -106.5t65.5 -96.5q87 104 87 174q0 22 -15 40q-11 14 -31 16v18zM325 415q121 58 121 147q0 36 -22 59
t-54 23q-43 0 -65 -30q-21 -30 -21 -58q0 -23 8 -54q4 -14 12.5 -36t20.5 -51zM401 109q-33 44 -55 76t-35 52.5t-26.5 45.5t-28.5 56q-118 -69 -118 -163q0 -53 34 -92.5t91 -39.5q31 0 59 12q15 7 34.5 19.5t44.5 33.5z" />
    <glyph glyph-name="quotesingle" unicode="'" horiz-adv-x="181" 
d="M77 393l-26 145q-5 31 -8 51t-3 31q0 31 12.5 45.5t34.5 14.5t36.5 -14.5t14.5 -38.5q0 -9 -3 -31t-10 -58l-26 -145h-22z" />
    <glyph glyph-name="parenleft" unicode="(" horiz-adv-x="334" 
d="M312 -195v-19q-75 38 -124 88q-71 71 -109 166q-38 97 -38 201q0 151 75 276q75 126 196 180v-21q-60 -33 -99 -91t-58 -146.5t-19 -185.5q0 -104 16 -190q13 -67 31 -108t48.5 -78.5t80.5 -71.5z" />
    <glyph glyph-name="parenright" unicode=")" horiz-adv-x="334" 
d="M23 676v21q75 -38 123 -87q71 -72 109 -168t38 -200q0 -152 -75 -277q-74 -125 -195 -179v19q60 33 99 91t57 146q19 89 19 185q0 105 -16 190q-12 69 -31 109q-18 40 -48 78t-80 72z" />
    <glyph glyph-name="asterisk" unicode="*" 
d="M242 512q-2 34 -14 67q-16 47 -16 66q0 25 12 38.5t29 13.5q15 0 26.5 -13t11.5 -38q0 -22 -13 -62t-16 -72q14 8 26 18.5t23 22.5q16 20 28.5 31.5t20.5 16.5q16 9 33 9q16 0 27 -11t11 -26q0 -18 -16 -32q-17 -15 -81 -29q-38 -8 -63 -19q27 -13 63 -20q59 -10 77 -27
q19 -16 19 -35q0 -15 -11 -25.5t-26 -10.5q-14 0 -33 10q-19 11 -48 46q-10 12 -22.5 23t-27.5 22q1 -27 11 -61q18 -57 18 -78q0 -10 -3 -18.5t-8.5 -15t-12 -10t-13.5 -3.5q-17 0 -33 14q-10 11 -10 33q0 23 11 56q6 17 9.5 28.5t5.5 17.5q3 14 5 37q-14 -10 -27 -20.5
t-23 -21.5q-36 -41 -54 -51q-13 -8 -27 -8q-8 0 -15.5 3t-13 8t-8.5 11.5t-3 13.5q0 12 10 25.5t30 22.5q14 6 60 16q16 3 31 7.5t29 10.5q-27 14 -63 21q-61 12 -75 23q-22 16 -22 39q0 7 3 13t8 11.5t11.5 8t14.5 2.5q16 0 34 -10t45 -41q28 -32 55 -48z" />
    <glyph glyph-name="plus" unicode="+" horiz-adv-x="566" 
d="M262 69v245h-244v40h244v243h39v-243h245v-40h-245v-245h-39z" />
    <glyph glyph-name="comma" unicode="," horiz-adv-x="251" 
d="M54 -166v21q51 18 78 52q28 35 28 74q0 9 -5 16q-4 3 -7 3q-5 0 -23 -8q-9 -5 -19 -5q-24 0 -38 14t-14 39q0 24 18 41q19 17 45 17q32 0 57 -28q26 -28 26 -74q0 -25 -8.5 -49t-26.5 -45t-45.5 -38.5t-65.5 -29.5z" />
    <glyph glyph-name="hyphen" unicode="-" horiz-adv-x="334" 
d="M41 262h253v-74h-253v74z" />
    <glyph glyph-name="period" unicode="." horiz-adv-x="251" 
d="M125 95q24 0 39 -16q16 -16 16 -38q0 -12 -4.5 -21.5t-12 -16.5t-17 -11.5t-21.5 -4.5q-11 0 -20.5 4.5t-17 11.5t-12 16.5t-4.5 21.5q0 23 16 38q16 16 38 16z" />
    <glyph glyph-name="slash" unicode="/" horiz-adv-x="279" 
d="M281 697l-240 -710h-40l241 710h39z" />
    <glyph glyph-name="zero" unicode="0" 
d="M36 328q0 115 35 196q34 82 91 122q44 32 91 32q76 0 137 -78q76 -96 76 -261q0 -116 -33.5 -197t-85.5 -117t-99 -36q-95 0 -158 111q-54 95 -54 228zM132 316q0 -137 34 -224q28 -73 83 -73q27 0 55 24q29 24 43 79q23 84 23 238q0 114 -24 190q-17 56 -45 80
q-20 16 -49 16q-33 0 -59 -30q-36 -41 -48 -128q-6 -44 -9.5 -86.5t-3.5 -85.5z" />
    <glyph glyph-name="one" unicode="1" 
d="M118 599l161 79h16v-561q0 -55 5 -69t19 -22q16 -7 60 -8v-18h-250v18q24 1 39 3t22 5q14 7 19 19q6 13 6 72v359q0 73 -5 93q-4 16 -13 23t-22 7q-18 0 -50 -15z" />
    <glyph glyph-name="two" unicode="2" 
d="M460 128l-46 -128h-392v18q86 80 147 143.5t96 114.5q71 100 71 183q0 63 -39 103q-39 41 -93 41q-24 0 -46.5 -7t-41 -21t-33.5 -35.5t-24 -49.5h-18q12 92 62 140q51 48 127 48q82 0 135 -52q54 -52 54 -122q0 -50 -23 -101q-36 -79 -118 -168q-61 -67 -99 -107
t-53 -54h173q27 0 45.5 1t28.5 3q22 4 39 16t30 34h18z" />
    <glyph glyph-name="three" unicode="3" 
d="M51 538q28 67 71.5 103.5t108.5 36.5q80 0 122 -52q33 -39 33 -83q0 -72 -92 -150q62 -24 93 -68t31 -105q0 -87 -54 -149q-72 -82 -208 -82q-67 0 -91 16q-24 17 -24 36q0 14 11.5 24.5t27.5 10.5q12 0 25 -3q4 -1 13.5 -6t24.5 -13q28 -14 40 -18q19 -5 39 -5
q50 0 87 39q37 38 37 91q0 38 -17 76q-13 28 -28 41q-22 20 -58 36q-37 16 -75 16h-16v14q39 5 78 28q39 24 56.5 56t17.5 71q0 50 -32 81q-31 31 -78 31q-76 0 -127 -81z" />
    <glyph glyph-name="four" unicode="4" 
d="M467 245v-70h-89v-175h-81v175h-281v63l308 440h54v-433h89zM297 245v330l-233 -330h233z" />
    <glyph glyph-name="five" unicode="5" 
d="M436 664l-39 -83h-200l-43 -89q130 -19 206 -97q65 -66 65 -156q0 -52 -22 -97q-21 -45 -53.5 -76.5t-71.5 -50.5q-57 -26 -116 -26q-60 0 -87 20q-27 19 -27 44q0 14 11.5 24.5t28.5 10.5q11 0 22 -4q10 -4 33 -20q36 -25 74 -25q57 0 100 43q44 43 44 106q0 60 -39 112
t-106 81q-53 21 -146 25l127 258h239z" />
    <glyph glyph-name="six" unicode="6" 
d="M450 678v-18q-33 -3 -59 -9.5t-47 -16.5q-40 -19 -81 -59q-19 -19 -35.5 -41t-30 -47t-24.5 -53.5t-20 -62.5q71 48 142 48q68 0 118 -54.5t50 -141.5q0 -83 -50 -151q-61 -83 -161 -83q-68 0 -116 44q-93 88 -93 228q0 89 35.5 169t102.5 143q67 62 127 84q62 21 113 21
h29zM145 335q-9 -66 -9 -107q0 -46 17 -102q18 -55 52 -87q26 -23 61 -23q43 0 76 40q34 41 34 115q0 83 -33.5 144.5t-94.5 61.5q-20 0 -40 -8t-63 -34z" />
    <glyph glyph-name="seven" unicode="7" 
d="M101 664h356v-18l-221 -659h-55l198 598h-183q-55 0 -78 -14q-42 -23 -67 -69l-14 5z" />
    <glyph glyph-name="eight" unicode="8" 
d="M193 335q-80 65 -102.5 103.5t-22.5 81.5q0 65 50 111q50 47 133 47q80 0 129 -44q49 -43 49 -99q0 -37 -26 -76q-27 -39 -110 -91q43 -34 71 -60t43 -45q37 -49 37 -105q0 -71 -54 -120q-53 -49 -140 -49q-94 0 -147 59q-42 48 -42 103q0 44 29 88q15 22 40.5 45.5
t62.5 50.5zM269 387q59 53 75 83q16 32 16 70q0 52 -29 81t-79 29t-81 -29q-32 -29 -32 -68q0 -25 13 -50.5t37 -48.5zM216 316q-42 -34 -61 -74.5t-19 -87.5q0 -64 34 -102q35 -37 88 -37q54 0 85 30q32 30 32 72q0 35 -19 63q-34 52 -140 136z" />
    <glyph glyph-name="nine" unicode="9" 
d="M53 -13v17q63 1 118 30q55 28 106 100q52 72 72 158q-78 -50 -139 -50q-70 0 -120 54t-50 144q0 87 50 155q60 83 157 83q82 0 140 -68q72 -84 72 -206q0 -111 -55 -207q-54 -96 -151 -159q-79 -51 -172 -51h-28zM357 328q9 64 9 102q0 47 -17 102q-16 56 -45.5 85
t-67.5 29q-43 0 -76 -39t-33 -117q0 -103 44 -161q31 -42 78 -42q23 0 53 10q32 12 55 31z" />
    <glyph glyph-name="colon" unicode=":" horiz-adv-x="279" 
d="M142 463q11 0 20.5 -4.5t17 -12t12 -17.5t4.5 -21t-4.5 -21t-12 -17t-17 -11.5t-20.5 -4.5q-12 0 -21.5 4.5t-17 11.5t-12 17t-4.5 21t4.5 21t12 17.5t17 12t21.5 4.5zM141 96q23 0 38 -17q16 -16 16 -38q0 -12 -4 -21.5t-11.5 -16.5t-17.5 -11.5t-21 -4.5
q-12 0 -21.5 4.5t-17 11.5t-12 16.5t-4.5 21.5q0 11 4.5 21t12 17.5t17 12t21.5 4.5z" />
    <glyph glyph-name="semicolon" unicode=";" horiz-adv-x="279" 
d="M138 463q11 0 21 -4t17.5 -11.5t12 -17.5t4.5 -21t-4.5 -21t-12 -17t-17.5 -11.5t-21 -4.5t-21 4.5t-17 11.5t-11.5 17t-4.5 21t4.5 21t11.5 17.5t17 11.5t21 4zM70 -166v21q51 18 77 52q28 35 28 74q0 9 -4 16q-4 3 -7 3q-5 0 -23 -8q-9 -5 -19 -5q-24 0 -38 14t-14 39
q0 24 18 41t45 17q32 0 57 -28q26 -28 26 -74q0 -25 -9 -49t-26.5 -45t-45 -38.5t-65.5 -29.5z" />
    <glyph glyph-name="less" unicode="&#x3c;" horiz-adv-x="566" 
d="M18 346l527 228v-42l-453 -197l453 -199v-44l-527 230v24z" />
    <glyph glyph-name="equal" unicode="=" horiz-adv-x="566" 
d="M18 433h529v-41h-529v41zM18 273h529v-40h-529v40z" />
    <glyph glyph-name="greater" unicode="&#x3e;" horiz-adv-x="566" 
d="M545 320l-527 -228v42l454 197l-454 199v44l527 -230v-24z" />
    <glyph glyph-name="question" unicode="?" horiz-adv-x="445" 
d="M222 157h-20q4 63 16 102q12 41 50 112q29 55 38 85q9 31 9 60q0 62 -34 99q-33 37 -81 37q-42 0 -66.5 -20t-24.5 -44q0 -18 14.5 -44.5t14.5 -39.5q0 -18 -11 -30t-28 -12q-20 0 -37 20t-17 57q0 55 48 98t128 43q101 0 149 -59q35 -43 35 -96q0 -36 -16 -73
q-16 -38 -60 -89q-71 -79 -87 -114q-16 -33 -20 -92zM216 96q23 0 38.5 -15.5t15.5 -39.5q0 -11 -4 -21t-11.5 -17t-17.5 -11t-21 -4q-12 0 -21.5 4t-17 11t-12 17t-4.5 21q0 23 16 39t39 16z" />
    <glyph glyph-name="at" unicode="@" horiz-adv-x="924" 
d="M690 469l-57 -195q-16 -55 -26 -90t-13 -49q-7 -31 -7 -47t10.5 -27t26.5 -11q36 0 85 36q50 36 87 116q35 80 35 168q0 83 -40.5 154.5t-113.5 109.5q-74 38 -163 38q-113 0 -210 -61q-97 -59 -154 -172q-56 -112 -56 -234q0 -113 49 -205q50 -91 140 -138
q90 -48 194 -48q130 0 233 69q105 69 161 201h29q-45 -133 -161 -216q-116 -84 -264 -84q-116 0 -216.5 55.5t-155.5 156.5q-55 100 -55 222q0 129 60 241q62 112 170 175q110 63 233 63q101 0 183 -42q82 -43 124 -123q43 -80 43 -171q0 -90 -40 -178q-40 -87 -102 -128
q-61 -40 -129 -40q-37 0 -56 17.5t-19 49.5q0 28 9 72q-73 -88 -116 -113q-43 -26 -77 -26t-62 31q-26 31 -26 83q0 71 46 159t123 144q56 40 100 40q33 0 55 -16.5t30 -50.5l16 54zM518 449q-37 0 -75 -38q-55 -58 -94 -154q-29 -71 -29 -113q0 -31 17 -51q18 -19 39 -19
q28 0 60 22q16 10 32.5 26.5t33.5 39.5q34 44 50 90q27 78 27 127q0 16 -5 29t-13 22t-19 14t-24 5z" />
    <glyph glyph-name="A" unicode="A" horiz-adv-x="725" 
d="M459 222h-257l-45 -104q-17 -39 -17 -58q0 -15 14 -27q15 -11 63 -15v-18h-209v18q41 7 54 19q25 24 55 96l234 547h17l231 -553q28 -67 50.5 -86.5t63.5 -22.5v-18h-262v18q20 1 33 4.5t20.5 9t11 12.5t3.5 15q0 22 -20 68zM445 259l-112 268l-116 -268h228z" />
    <glyph glyph-name="B" unicode="B" horiz-adv-x="669" 
d="M463 339q69 -15 104 -47q47 -45 47 -110q0 -50 -31 -95q-32 -45 -86 -66q-55 -21 -167 -21h-313v18h25q41 0 59 27q12 17 12 73v429q0 61 -15 78q-19 21 -56 21h-25v18h287q80 0 129 -11q73 -18 112 -63t39 -103q0 -50 -30.5 -89.5t-90.5 -58.5zM207 366q37 -7 92 -7
q72 0 108 15q18 8 32 20t23 27.5t14 33t5 36.5q0 58 -47.5 99.5t-138.5 41.5q-50 0 -88 -11v-255zM207 48q57 -13 112 -13q89 0 135 39q47 41 47 99q0 39 -21 75t-68.5 56.5t-118.5 20.5q-30 0 -51.5 -1t-34.5 -4v-272z" />
    <glyph glyph-name="C" unicode="C" horiz-adv-x="669" 
d="M604 680l15 -226h-15q-15 51 -37 87t-50 59t-61.5 33.5t-73.5 10.5q-65 0 -119 -34q-54 -33 -84.5 -106t-30.5 -183q0 -90 29 -156q29 -67 87 -102t132 -35q65 0 115 27q49 28 108 111l15 -10q-24 -44 -53 -76.5t-63 -53.5t-73.5 -30.5t-84.5 -9.5q-165 0 -256 121
q-68 91 -68 215q0 100 45 183t122 129q79 46 171 46q73 0 142 -36q21 -10 30 -10q14 0 23 9q13 14 18 37h17z" />
    <glyph glyph-name="D" unicode="D" horiz-adv-x="725" 
d="M17 0v18h25q42 0 60 27q11 16 11 73v429q0 63 -14 78q-19 21 -57 21h-25v18h271q149 0 226 -33q78 -34 125 -113t47 -182q0 -139 -84 -232q-95 -104 -288 -104h-297zM207 48q61 -14 104 -14q114 0 189 80q75 81 75 217q0 137 -75 216.5t-193 79.5q-22 0 -47 -3.5
t-53 -10.5v-565z" />
    <glyph glyph-name="E" unicode="E" horiz-adv-x="613" 
d="M210 638v-272h146q56 0 76 17q25 22 28 79h18v-231h-18q-3 24 -6.5 39.5t-7.5 22.5q-4 9 -11 15.5t-17.5 11.5t-26 7.5t-35.5 2.5h-146v-219q0 -44 4 -54q2 -5 5 -8.5t8.5 -6.5t14.5 -4.5t23 -1.5h112q57 0 82 8q26 8 49 31q31 31 62 92h20l-57 -167h-512v18h23
q23 0 45 11q16 9 21 24q6 16 6 64v442q0 62 -13 78q-18 19 -59 19h-23v18h512l7 -145h-19q-10 51 -23 72q-12 19 -37 30q-20 7 -69 7h-182z" />
    <glyph glyph-name="F" unicode="F" horiz-adv-x="558" 
d="M205 628v-261h121q42 0 61 18t26 73h18v-225h-18q0 38 -10 57q-10 18 -26.5 27t-50.5 9h-121v-208q0 -51 7 -67q5 -12 20 -21q22 -12 45 -12h24v-18h-285v18h24q41 0 59 24q12 16 12 76v429q0 51 -6 66q-6 13 -20 21q-21 12 -45 12h-24v18h495l6 -146h-17q-12 46 -30 68
q-17 23 -42 32q-25 10 -76 10h-147z" />
    <glyph glyph-name="G" unicode="G" horiz-adv-x="725" 
d="M616 680l17 -210h-17q-26 78 -67 118q-60 57 -153 57q-127 0 -193 -100q-55 -85 -55 -202q0 -95 37 -173q36 -79 96 -116q60 -36 122 -36q37 0 71 9.5t66 27.5v192q0 50 -7 65q-8 16 -24 24t-56 8v19h257v-19h-12q-39 0 -52 -26q-10 -18 -10 -71v-203q-57 -31 -111 -44
q-56 -14 -122 -14q-193 0 -293 122q-75 93 -75 214q0 88 42 168q50 95 138 147q73 43 172 43q36 0 66 -6q15 -3 36 -9.5t48 -16.5q27 -11 37 -11q9 0 15.5 9t8.5 34h18z" />
    <glyph glyph-name="H" unicode="H" horiz-adv-x="725" 
d="M206 376h319v190q0 52 -6 67q-5 13 -21 21q-21 12 -45 12h-23v18h284v-18h-23q-23 0 -45 -11q-16 -8 -22 -24q-5 -16 -5 -65v-448q0 -51 6 -67q6 -13 20 -21q22 -12 46 -12h23v-18h-284v18h23q42 0 60 24q12 15 12 76v222h-319v-222q0 -51 7 -67q5 -12 20 -21
q22 -12 45 -12h24v-18h-285v18h24q41 0 59 24q12 16 12 76v448q0 52 -6 67q-6 13 -20 21q-21 12 -45 12h-24v18h285v-18h-24q-23 0 -45 -11q-15 -8 -21 -24q-6 -15 -6 -65v-190z" />
    <glyph glyph-name="I" unicode="I" horiz-adv-x="334" 
d="M310 18v-18h-285v18h24q41 0 59 24q12 16 12 76v448q0 51 -6 66q-6 13 -20 21q-21 12 -45 12h-24v18h285v-18h-24q-42 0 -60 -24q-12 -15 -12 -75v-448q0 -51 6 -67q5 -12 21 -21q22 -12 45 -12h24z" />
    <glyph glyph-name="J" unicode="J" horiz-adv-x="390" 
d="M100 666v18h285v-18h-24q-42 0 -60 -24q-11 -15 -11 -75v-345q0 -76 -17 -122q-16 -46 -56.5 -80t-96.5 -34q-47 0 -73 22q-26 23 -26 52q0 24 12 36q16 15 38 15q15 0 27 -10q14 -11 32 -55q12 -26 29 -26q7 0 13.5 3.5t11.5 12.5t8 23t3 34v474q0 51 -6 66
q-5 13 -20 21q-22 12 -45 12h-24z" />
    <glyph glyph-name="K" unicode="K" horiz-adv-x="725" 
d="M300 368l245 -243q60 -60 103 -82t85 -25v-18h-316v18q28 0 40.5 9.5t12.5 21.5t-5 21q-3 8 -30 35l-229 227v-214q0 -51 6 -67q5 -12 21 -21q21 -12 44 -12h23v-18h-283v18h23q42 0 60 24q12 16 12 76v449q0 51 -7 67q-5 12 -20 20q-21 12 -45 12h-23v18h283v-18h-23
q-23 0 -44 -11q-15 -8 -21 -24q-6 -15 -6 -64v-224q5 5 21.5 20.5t45.5 42.5q146 153 176 198q13 20 13 34q0 11 -10 19.5t-35 8.5h-15v18h244v-18q-22 -1 -39 -6q-9 -3 -20 -7.5t-24 -13t-28.5 -20.5t-33.5 -29q-6 -5 -30.5 -35.5t-69.5 -71.5z" />
    <glyph glyph-name="L" unicode="L" horiz-adv-x="613" 
d="M575 184l16 -4l-56 -180h-515v18h25q42 0 60 28q11 15 11 72v449q0 63 -14 78q-19 21 -57 21h-25v18h301v-18q-53 1 -75 -10q-20 -9 -28 -26q-8 -15 -8 -84v-428q0 -41 8 -56q5 -10 18 -15q11 -5 76 -5h49q76 0 107 11q30 11 56 40q13 14 25.5 37t25.5 54z" />
    <glyph glyph-name="M" unicode="M" horiz-adv-x="892" 
d="M411 0l-257 579v-464q0 -61 13 -76q19 -21 57 -21h24v-18h-231v18h23q42 0 60 26q11 15 11 71v454q0 43 -10 64q-3 7 -9 13.5t-16 10.5t-24.5 6.5t-34.5 2.5v18h188l241 -539l237 539h188v-18h-23q-43 0 -60 -25q-11 -15 -11 -72v-454q0 -61 14 -76q18 -21 57 -21h23v-18
h-282v18h23q44 0 60 26q11 15 11 71v464l-256 -579h-16z" />
    <glyph glyph-name="N" unicode="N" horiz-adv-x="725" 
d="M-12 682h179l406 -516v401q0 61 -13 77q-19 20 -58 20h-23v18h231v-18h-23q-42 0 -60 -25q-11 -15 -11 -72v-577h-17l-438 552v-427q0 -61 13 -76q19 -21 57 -21h24v-18h-231v18h23q42 0 60 26q11 15 11 71v480q-28 33 -45 45q-7 5 -18 10t-25 10q-14 4 -42 4v18z" />
    <glyph glyph-name="O" unicode="O" horiz-adv-x="725" 
d="M367 680q129 0 224 -99q95 -98 95 -245q0 -151 -96 -251q-95 -99 -231 -99q-137 0 -231 96q-93 98 -93 253q0 158 108 258q94 87 224 87zM358 644q-90 0 -143 -66q-68 -83 -68 -241q0 -164 70 -251q53 -66 141 -66q93 0 154.5 73t61.5 230q0 170 -67 254q-54 67 -149 67z
" />
    <glyph glyph-name="P" unicode="P" horiz-adv-x="558" 
d="M206 311v-193q0 -63 14 -78q18 -22 56 -22h25v-18h-284v18h25q41 0 60 28q10 15 10 72v429q0 63 -14 78q-19 21 -56 21h-25v18h243q89 0 141 -18q51 -18 87 -62q35 -43 35 -103q0 -82 -54 -133t-152 -51q-49 0 -111 14zM206 339q26 -5 46 -7.5t34 -2.5q51 0 88 39
q37 40 37 103q0 43 -18 80q-17 37 -49 55.5t-74 18.5q-13 0 -29 -2.5t-35 -7.5v-276z" />
    <glyph glyph-name="Q" unicode="Q" horiz-adv-x="725" 
d="M442 4q50 -88 108 -127q58 -41 132 -47v-15q-67 1 -145 27q-75 24 -146 69q-67 43 -118 93q-70 27 -112 59q-60 47 -93 111.5t-33 159.5q0 148 97 247q96 99 234 99q130 0 225 -99t95 -249q0 -123 -68 -204q-67 -93 -176 -124zM360 642q-90 0 -144 -64q-69 -80 -69 -244
q0 -162 70 -239q54 -67 143 -67q91 0 148 67q66 80 66 224q0 119 -36 201q-28 63 -74.5 92.5t-103.5 29.5z" />
    <glyph glyph-name="R" unicode="R" horiz-adv-x="669" 
d="M678 0h-177l-225 311q-13 -1 -23 -1h-18h-13.5t-15.5 1v-193q0 -63 14 -78q19 -22 56 -22h26v-18h-285v18h25q42 0 60 28q11 15 11 72v429q0 63 -14 78q-19 21 -57 21h-25v18h242q105 0 156 -15q51 -16 85 -57q36 -41 36 -99q0 -30 -10 -57t-30.5 -49t-51 -38t-72.5 -26
l137 -190q48 -66 81 -87q34 -22 88 -28v-18zM206 341h16.5h11.5q95 0 143 41t48 105q0 62 -39 101t-103 39q-14 0 -33 -2t-44 -7v-277z" />
    <glyph glyph-name="S" unicode="S" horiz-adv-x="558" 
d="M460 680v-230h-18q-9 66 -32 105q-23 40 -65 62q-42 23 -87 23q-51 0 -84 -31t-33 -71q0 -30 21 -55q30 -37 144 -98q94 -50 127 -77q34 -26 52.5 -62.5t18.5 -75.5q0 -76 -59 -130q-57 -54 -150 -54q-28 0 -54 4q-16 2 -64 17q-47 16 -60 16q-12 0 -19 -7.5t-11 -29.5
h-18v227h18q7 -36 15.5 -63t19.5 -45q21 -35 65 -58q45 -24 98 -24q61 0 96 32q36 33 36 77q0 25 -13.5 49.5t-41.5 46.5q-19 14 -105 62t-121 76q-36 29 -54.5 63t-18.5 76q0 71 55 123q54 52 139 52q52 0 112 -26q27 -13 39 -13q13 0 21 8t13 31h18z" />
    <glyph glyph-name="T" unicode="T" horiz-adv-x="613" 
d="M581 664l7 -155h-19q-5 41 -14 58q-16 29 -41 42.5t-66 13.5h-94v-508q0 -61 13 -76q19 -21 58 -21h23v-18h-282v18h24q42 0 59 26q11 15 11 71v508h-80q-45 0 -66 -7q-25 -9 -43.5 -35.5t-21.5 -71.5h-19l8 155h543z" />
    <glyph glyph-name="U" unicode="U" horiz-adv-x="725" 
d="M479 666v18h235v-18h-25q-39 0 -60 -33q-11 -15 -11 -70v-290q0 -99 -20 -155q-19 -55 -77.5 -94t-157.5 -39q-109 0 -165.5 37t-79.5 101q-16 45 -16 164v280q0 61 -17 80t-55 19h-25v18h288v-18h-26q-41 0 -59 -26q-12 -17 -12 -73v-310q0 -19 1.5 -41t5.5 -47
q7 -50 26 -78q18 -28 53 -46.5t86 -18.5q66 0 117 29q52 29 70 72q19 45 19 151v289q0 63 -13 78q-20 21 -57 21h-25z" />
    <glyph glyph-name="V" unicode="V" horiz-adv-x="725" 
d="M712 684v-18q-35 -7 -53 -22q-26 -25 -46 -74l-232 -574h-18l-249 582q-19 45 -27 53q-12 16 -29.5 24.5t-48.5 10.5v18h271v-18q-45 -4 -60 -15q-13 -11 -13 -29q0 -25 22 -77l169 -399l157 394q23 58 23 79q0 14 -14 27t-48 19q-2 0 -8 1v18h204z" />
    <glyph glyph-name="W" unicode="W" horiz-adv-x="947" 
d="M939 684v-18q-13 0 -23.5 -2t-19 -7t-15.5 -13.5t-15 -21.5q-9 -17 -31 -82l-185 -544h-19l-152 434l-150 -434h-18l-197 561q-23 62 -28 73q-10 18 -26.5 27t-46.5 9v18h246v-18h-12q-26 0 -39.5 -11.5t-13.5 -28.5t22 -79l130 -383l111 327l-20 56l-16 45
q-10 24 -23 43q-6 9 -15 16q-14 9 -25 12q-9 3 -29 3v18h258v-18h-17q-28 0 -40.5 -11.5t-12.5 -31.5q0 -25 22 -88l127 -371l127 376q21 62 21 85q0 11 -7 20.5t-18 13.5q-19 7 -48 7v18h198z" />
    <glyph glyph-name="X" unicode="X" horiz-adv-x="725" 
d="M410 378l142 -223q30 -44 52 -72t36 -39q29 -24 73 -26v-18h-285v18q28 1 42 6q10 4 16.5 13.5t6.5 18.5q0 12 -4 22q-2 4 -8.5 15t-18.5 29l-113 180l-139 -188q-22 -29 -26 -39q-5 -9 -5 -19q0 -8 3 -14.5t10.5 -11.5t19.5 -8t31 -4v-18h-236v18q25 2 43 10
q30 13 58 35t63 66l157 208l-131 201q-54 78 -91 102q-37 25 -85 26v18h307v-18q-20 0 -33 -4t-21 -9t-11 -11.5t-3 -12.5q0 -19 23 -53l102 -163l118 160q20 26 25 36q5 9 5 20q0 10 -6 18q-7 10 -18 14t-47 5v18h236v-18q-28 -1 -46 -9q-26 -10 -48 -30q-21 -19 -63 -70z
" />
    <glyph glyph-name="Y" unicode="Y" horiz-adv-x="725" 
d="M478 684h232v-18h-13q-12 0 -37 -11t-45 -32q-9 -11 -21.5 -28t-27.5 -41l-160 -252v-187q0 -61 13 -76q19 -21 59 -21h22v-18h-282v18h23q42 0 60 26q11 15 11 71v177l-183 279q-16 25 -27 40t-17 21q-11 12 -47 29q-10 5 -29 5v18h284v-18h-14q-23 0 -43 -11
q-19 -10 -19 -32q0 -18 30 -64l139 -214l130 205q29 47 29 69q-1 10 -4.5 19t-10.5 15t-20 9.5t-32 3.5v18z" />
    <glyph glyph-name="Z" unicode="Z" horiz-adv-x="613" 
d="M577 664l-436 -624h272q63 0 96 28q34 27 60 111l16 -3l-31 -176h-541v18l426 607h-213q-52 0 -77 -12q-23 -11 -36 -33q-12 -21 -22 -82h-19l14 166h491z" />
    <glyph glyph-name="bracketleft" unicode="[" horiz-adv-x="334" 
d="M298 -198h-216v878h216v-39h-142v-801h142v-38z" />
    <glyph glyph-name="backslash" unicode="\" horiz-adv-x="279" 
d="M41 697l240 -710h-39l-241 710h40z" />
    <glyph glyph-name="bracketright" unicode="]" horiz-adv-x="334" 
d="M37 680h215v-878h-215v38h142v801h-142v39z" />
    <glyph glyph-name="asciicircum" unicode="^" horiz-adv-x="471" 
d="M244 678l208 -351h-45l-171 287l-172 -287h-46l211 351h15z" />
    <glyph glyph-name="underscore" unicode="_" 
d="M511 -216h-518v42h518v-42z" />
    <glyph glyph-name="grave" unicode="`" horiz-adv-x="334" 
d="M58 681h109l52 -169h-17z" />
    <glyph glyph-name="a" unicode="a" horiz-adv-x="445" 
d="M286 65q-69 -54 -87 -62q-27 -11 -56 -11q-47 0 -77 31t-30 83q0 33 14 57q20 33 70 63q51 30 166 71v28q0 67 -22 92q-21 25 -62 25q-31 0 -49 -17t-18 -38l1 -28q0 -23 -11.5 -35t-30.5 -12q-18 0 -29.5 12.5t-11.5 34.5q0 42 43 78q44 35 121 35q59 0 98 -20
q29 -16 43 -48q8 -21 8 -86v-162q0 -33 1 -52.5t2 -26.5q2 -14 8 -19t13 -5q8 0 14 3q11 7 39 36v-27q-55 -73 -104 -73q-24 0 -38.5 16t-14.5 57zM286 97v171q-38 -15 -61.5 -25.5t-34.5 -16.5q-39 -22 -55.5 -45.5t-16.5 -51.5q0 -35 21 -58q22 -23 49 -23q37 0 98 49z
" />
    <glyph glyph-name="b" unicode="b" 
d="M154 381q66 91 141 91q69 0 120 -59q52 -59 52 -171q0 -120 -79 -193q-69 -62 -152 -62q-78 0 -163 56v475q0 66 -3 84q-4 18 -12 24.5t-19 6.5q-15 0 -35 -8l-5 17l133 55h22v-316zM154 350v-278q51 -50 107 -50q44 0 82 49q39 49 39 143q0 96 -39 142q-38 46 -87 36
q-26 0 -52 -3q-19 -9 -50 -39z" />
    <glyph glyph-name="c" unicode="c" horiz-adv-x="445" 
d="M413 171q-19 -89 -72 -137q-52 -47 -117 -47q-77 0 -133 63q-57 65 -57 174q0 115 63 182q63 66 151 66q67 0 109 -35q43 -35 43 -73q0 -18 -12 -29.5t-34 -11.5q-29 0 -43 18q-9 11 -12 39q-2 29 -19 45q-17 14 -48 14q-48 0 -79 -36q-39 -48 -39 -127q0 -90 39 -152
q40 -61 107 -61q48 0 86 33q27 22 52 81z" />
    <glyph glyph-name="d" unicode="d" 
d="M348 50q-32 -34 -63.5 -48.5t-67.5 -14.5q-73 0 -129 61q-55 61 -55 158q0 96 61 176q61 81 156 81q59 0 98 -38v83q0 76 -4 94q-3 18 -11 24.5t-19 6.5q-14 0 -34 -8l-7 17l134 55h22v-519q0 -80 4 -97t12 -24t18 -7q13 0 36 9l5 -17l-133 -55h-23v63zM348 85v231
q-3 34 -17 61q-8 13 -18 23.5t-21.5 17.5t-23.5 10.5t-24 3.5q-43 0 -76 -39q-45 -50 -45 -149t43 -151q44 -53 96 -53q45 0 86 45z" />
    <glyph glyph-name="e" unicode="e" horiz-adv-x="445" 
d="M107 280q-1 -100 48.5 -157t114.5 -57q45 0 77.5 24.5t54.5 82.5l15 -9q-10 -67 -60 -122q-49 -55 -124 -55q-80 0 -138 62q-58 63 -58 170q0 115 59 179q60 65 148 65q76 0 124 -50q49 -49 49 -133h-310zM107 308h208q-2 43 -11 61q-12 27 -36 43t-51 16q-40 0 -73 -32
q-32 -32 -37 -88z" />
    <glyph glyph-name="f" unicode="f" horiz-adv-x="334" 
d="M207 414v-295q0 -63 13 -80q19 -21 49 -21h41v-18h-268v18h20q19 0 36 9q16 10 22 27q6 16 6 65v295h-87v35h87v29q0 67 21 114q22 46 66 75q45 29 100 29q51 0 95 -34q28 -22 28 -49q0 -14 -13 -28q-12 -13 -27 -13q-12 0 -24 8q-6 4 -13.5 13t-17.5 22q-18 27 -33 36
t-34 9q-23 0 -38 -12q-16 -12 -22 -37q-7 -26 -7 -130v-32h115v-35h-115z" />
    <glyph glyph-name="g" unicode="g" 
d="M151 164q-41 20 -63 55.5t-22 79.5q0 67 50 115q51 48 129 48q65 0 111 -31h95q21 0 25 -2q3 0 5 -4q3 -4 3 -15q0 -12 -3 -18q-1 -2 -5 -4q-4 -1 -25 -1h-58q27 -36 27 -91q0 -62 -48 -107q-47 -44 -128 -44q-33 0 -69 9q-22 -18 -29 -32t-7 -24q0 -8 8 -16t31 -11
q7 -1 24 -2t45 -2q50 -1 83 -2.5t48 -4.5q23 -3 41.5 -11.5t31 -21.5t20 -30t7.5 -37q0 -56 -52 -104q-77 -72 -200 -72q-94 0 -159 43q-37 24 -37 51q0 11 5 24q4 9 13 21.5t22 28.5q2 2 14 15t36 37q-26 15 -36.5 27t-10.5 27q0 18 14 40q7 12 23 28.5t41 37.5zM237 439
q-37 0 -61.5 -29t-24.5 -89q0 -77 34 -120q26 -32 64 -32q19 0 34.5 6.5t27 21t18 36t6.5 51.5q0 78 -34 122q-25 33 -64 33zM146 0q-46 -49 -46 -85q0 -24 28 -41q50 -31 142 -31q88 0 130 32q42 30 42 66q0 25 -25 36q-13 5 -38 8.5t-63 4.5q-55 1 -97.5 4t-72.5 6z" />
    <glyph glyph-name="h" unicode="h" 
d="M163 697v-329q55 60 86.5 77t63.5 17q38 0 65.5 -21t40.5 -66q10 -31 10 -115v-159q0 -42 7 -58q2 -6 5.5 -10.5t10.5 -8t17.5 -5t25.5 -1.5v-18h-220v18h10q16 0 26.5 2.5t17.5 7t10.5 11.5t6.5 16q1 9 1 46v159q0 75 -7 97q-8 23 -24.5 34.5t-40.5 11.5
q-23 0 -49.5 -13t-62.5 -51v-238q0 -47 5 -57q5 -11 19 -19q14 -7 49 -7v-18h-223v18q31 0 47 9q11 5 16 19q6 14 6 55v407q0 76 -4 94t-11.5 24.5t-19.5 6.5t-34 -8l-7 17l135 55h22z" />
    <glyph glyph-name="i" unicode="i" horiz-adv-x="279" 
d="M146 697q10 0 19 -4t15.5 -10.5t10.5 -15.5t4 -20q0 -10 -4 -19t-10.5 -16t-15.5 -11t-19 -4q-11 0 -20 4t-16 11t-10.5 16t-3.5 19q0 11 3.5 20t10.5 15.5t16 10.5t20 4zM186 472v-371q0 -42 6 -56q7 -14 18 -21q13 -6 44 -6v-18h-218v18q34 0 44 6q12 7 18 21
q7 15 7 56v173q0 84 -5 105q-3 16 -10.5 22t-19.5 6q-14 0 -34 -7l-7 17l136 55h21z" />
    <glyph glyph-name="j" unicode="j" horiz-adv-x="279" 
d="M145 697q10 0 19.5 -4t16.5 -10.5t10.5 -16t3.5 -19.5q0 -11 -3.5 -20t-10.5 -15.5t-16.5 -10.5t-19.5 -4t-19 4t-16 10.5t-11 15.5t-4 20q0 10 4 19.5t11 16t16 10.5t19 4zM187 482v-472q0 -114 -49 -170t-127 -56q-44 0 -65 17q-22 16 -22 33q0 9 3 16.5t9 13t13 9
t15 3.5q13 0 26 -7q4 -2 12 -8t20 -16q24 -22 39 -22q12 0 23 9q12 10 17 31q2 11 3.5 33.5t1.5 58.5v328q0 84 -4 105q-4 17 -11 23t-20 6t-33 -7l-7 17l135 55h21z" />
    <glyph glyph-name="k" unicode="k" 
d="M164 697v-447l114 114q37 34 42 42q4 7 4 22q0 10 -8 17t-26 8v16h195v-16q-21 0 -37.5 -3.5t-30.5 -8.5q-26 -11 -58 -50l-115 -117l115 -145q48 -60 65 -77q24 -23 41 -29q12 -5 43 -5v-18h-218v18q18 0 24.5 5t6.5 15q0 11 -19 36l-138 176v-149q0 -43 6 -57t18 -20
q10 -5 49 -6v-18h-229v18q34 0 52 8q10 5 15 17q8 16 8 55v419q0 29 -1 53t-3 32q-3 18 -11 24.5t-20 6.5q-10 0 -31 -8l-9 17l134 55h22z" />
    <glyph glyph-name="l" unicode="l" horiz-adv-x="279" 
d="M186 697v-596q0 -41 6 -55t19 -22q12 -6 47 -6v-18h-220v18q32 0 42 6q12 7 18 21t6 56v408q0 38 -0.5 61.5t-2.5 31.5q-3 18 -11 24.5t-19 6.5q-14 0 -33 -8l-8 17l134 55h22z" />
    <glyph glyph-name="m" unicode="m" horiz-adv-x="780" 
d="M165 366l57 57q22 18 47.5 28.5t50.5 10.5q43 0 73 -24t41 -72q50 59 85 77.5t71 18.5t64 -18.5t44 -59.5q10 -28 10 -90v-193q0 -43 7 -57q5 -11 18 -18.5t43 -7.5v-18h-221v18h9q28 0 45 11q11 8 16 25q2 7 2 47v193q0 55 -13 78q-19 31 -61 31q-26 0 -53 -13
q-25 -12 -63 -48l-1 -5l1 -21v-215q0 -47 5 -57q5 -11 20 -19q14 -7 48 -7v-18h-227v18q37 0 51 8q15 10 20 27q2 9 2 48v193q0 55 -16 79q-21 32 -60 32q-27 0 -53 -15q-40 -21 -62 -48v-241q0 -44 6 -57q6 -14 18 -20t49 -6v-18h-222v18q31 0 43 6t18 21q7 14 7 56v172
q0 74 -5 95q-3 17 -10.5 23t-19.5 6q-14 0 -33 -7l-8 17l136 55h21v-96z" />
    <glyph glyph-name="n" unicode="n" 
d="M162 367q79 95 151 95q36 0 62.5 -18t42.5 -61q11 -29 11 -90v-192q0 -41 7 -57q4 -13 17 -20q12 -6 44 -6v-18h-222v18h10q15 0 25.5 2.5t18 7t11 11.5t6.5 16q2 7 2 46v184q0 61 -16 89t-54 28q-58 0 -116 -64v-237q0 -44 6 -56q6 -14 18 -21q12 -6 49 -6v-18h-222v18
h10q34 0 46 17t12 66v167q0 80 -4 98q-3 18 -10.5 24.5t-20.5 6.5q-14 0 -33 -7l-7 17l135 55h21v-95z" />
    <glyph glyph-name="o" unicode="o" 
d="M251 462q102 0 164 -77q52 -67 52 -152q0 -60 -29 -122t-79.5 -93t-113.5 -31q-101 0 -161 80q-50 68 -50 153q0 61 30 122q32 62 81 91q50 29 106 29zM236 430q-26 0 -53 -15q-26 -16 -42 -54.5t-16 -99.5q0 -98 38.5 -169t103.5 -71q47 0 78 39t31 135q0 120 -52 188
q-34 47 -88 47z" />
    <glyph glyph-name="p" unicode="p" 
d="M0 414l137 56h19v-105q17 30 34.5 50.5t35.5 33t36 18t37 5.5q68 0 113 -53q55 -65 55 -168q0 -117 -66 -192q-55 -62 -138 -62q-37 0 -63 11q-20 5 -44 28v-146q0 -45 5 -58q6 -13 20 -20t51 -7v-19h-234v19h11q27 -1 46 10q9 5 14 17q5 13 5 61v434q0 42 -3 55
q-4 12 -13 17.5t-23 5.5q-11 0 -30 -6zM156 336v-167q0 -55 4 -72q7 -28 34 -50q27 -21 67 -21q50 0 80 38q39 50 39 141q0 102 -45 158q-31 38 -74 38q-24 0 -47 -12q-18 -9 -58 -53z" />
    <glyph glyph-name="q" unicode="q" 
d="M429 462v-576q0 -43 6 -56q5 -12 18 -19q12 -6 49 -6v-19h-227v19h10q28 0 41 7q10 6 16 20t6 54v192q-45 -53 -78 -72t-69 -19q-65 0 -117 59q-51 59 -51 158q0 115 68 186q68 72 163 72q56 0 94 -31q14 7 27.5 14.5t26.5 16.5h17zM348 109v210q0 36 -10 58
q-4 11 -13 20t-20.5 16t-25.5 11t-30 4q-55 0 -94 -46.5t-39 -141.5q0 -91 39 -138q41 -47 97 -47q29 0 51.5 12.5t44.5 41.5z" />
    <glyph glyph-name="r" unicode="r" horiz-adv-x="334" 
d="M163 472v-101q57 101 115 101q28 0 45 -17q18 -16 18 -37q0 -19 -13 -32.5t-31 -13.5q-17 0 -38 17q-22 17 -32 17q-8 0 -19 -10q-22 -20 -45 -66v-225q0 -38 9 -56q6 -14 22 -22.5t47 -8.5v-18h-230v18q35 0 51 10q12 8 17 25q3 9 3 48v184q0 79 -4 93q-5 29 -32 29
q-16 0 -35 -7l-5 17l136 55h21z" />
    <glyph glyph-name="s" unicode="s" horiz-adv-x="390" 
d="M321 472v-153h-16q-18 72 -48 98q-29 26 -74 26q-34 0 -55 -18t-21 -40q0 -27 15 -47q16 -20 62 -43l72 -35q99 -48 99 -128q0 -60 -46 -98q-46 -37 -104 -37q-40 0 -94 14q-15 5 -26 5q-12 0 -18 -12h-16v159h16q14 -69 53 -103q39 -35 86 -35q34 0 55 20q22 20 22 48
q0 34 -24 57q-25 23 -95 58q-71 35 -93 64q-22 28 -22 70q0 55 38 93q37 37 98 37q26 0 64 -11q25 -8 34 -8q8 0 12 3.5t10 15.5h16z" />
    <glyph glyph-name="t" unicode="t" horiz-adv-x="279" 
d="M162 606v-147h105v-34h-105v-302q0 -43 12 -58.5t32 -15.5q16 0 31.5 10.5t23.5 29.5h19q-9 -24 -21.5 -42t-27 -30t-31 -17.5t-33.5 -5.5q-23 0 -44 11q-22 13 -32 36t-10 72v312h-71v16q27 10 55 36t50 61q6 9 14 26t17 42h16z" />
    <glyph glyph-name="u" unicode="u" 
d="M425 459v-282q0 -79 3 -96q4 -17 12 -24t19 -7q15 0 34 9l7 -17l-134 -55h-22v94q-58 -62 -88 -79q-31 -15 -64 -15q-38 0 -66 21q-27 22 -38 56t-11 97v211q0 31 -7 44q-6 11 -20.5 18t-48.5 7v18h157v-311q0 -62 22 -82q21 -19 53 -19q10 0 22 2.5t25.5 10t29.5 20
t34 30.5v265q0 38 -14 51q-14 14 -58 15v18h153z" />
    <glyph glyph-name="v" unicode="v" 
d="M8 469h212v-18h-14q-19 0 -29 -9.5t-10 -25.5q0 -17 10 -40l104 -258l105 267q11 28 11 42q0 6 -4 11q-5 7 -13 10t-34 3v18h146v-18q-25 -2 -35 -11q-17 -14 -31 -49l-159 -394h-20l-160 388q-12 27 -21 38t-25 19q-8 5 -33 9v18z" />
    <glyph glyph-name="w" unicode="w" horiz-adv-x="725" 
d="M6 469h189v-18q-26 -2 -34.5 -9.5t-8.5 -21.5t9 -36l96 -269l96 221l-25 66q-12 30 -31 40q-11 7 -40 9v18h213v-18q-34 -2 -50 -13q-9 -8 -9 -25q0 -9 4 -20l101 -268l95 259q10 26 10 42q0 9 -9.5 16.5t-37.5 8.5v18h141v-18q-43 -7 -62 -58l-150 -396h-20l-113 296
l-130 -296h-19l-144 387q-13 35 -27.5 47.5t-43.5 19.5v18z" />
    <glyph glyph-name="x" unicode="x" 
d="M3 469h211v-18q-20 0 -28 -7t-8 -18q0 -12 27 -47q-2 -3 2 -9.5t9 -14.5l37 -51l44 51q38 58 38 71q0 10 -8 17.5t-27 7.5v18h152v-18q-24 -2 -42 -14q-23 -16 -68 -82l-69 -82l112 -171q41 -58 59 -71q18 -12 45 -13v-18h-211v18q21 0 34 9q9 7 9 19q0 11 -31 56
l-66 106l-72 -106q-33 -45 -33 -53q0 -11 11 -20.5t33 -10.5v-18h-146v18q16 2 31 12q18 14 62 72l94 135l-85 124q-46 62 -66 76t-50 14v18z" />
    <glyph glyph-name="y" unicode="y" 
d="M6 470h209v-18h-10q-22 0 -33 -9.5t-11 -24.5q0 -19 16 -53l109 -236l101 258q8 21 8 40q0 9 -4 13q-3 5 -11.5 8.5t-29.5 3.5v18h146v-18q-19 -3 -28 -8q-10 -7 -22 -22q-2 -4 -6 -13t-10 -25l-183 -457q-27 -65 -70 -98q-43 -34 -82 -34q-29 0 -47 17q-19 17 -19 38
t13.5 33.5t36.5 12.5q17 0 44 -11q21 -7 25 -7q15 0 32 15t35 59l32 77l-161 348q-4 8 -9.5 17.5t-14.5 20.5q-6 8 -11 14t-9 9q-10 8 -36 14v18z" />
    <glyph glyph-name="z" unicode="z" horiz-adv-x="445" 
d="M421 138l-5 -138h-396v18l298 397h-147q-48 0 -62 -7q-14 -6 -24 -23q-13 -23 -15 -61h-20l3 125h376v-18l-301 -398h164q50 0 70 8q18 9 29 31q9 15 14 66h16z" />
    <glyph glyph-name="braceleft" unicode="{" horiz-adv-x="482" 
d="M412 -198v-18q-81 11 -133 67q-51 55 -51 122q0 33 11 81t11 73q0 36 -30 66q-29 30 -81 37v20q52 7 81 38q30 29 30 66q0 25 -11 72.5t-11 82.5q0 66 51 122q51 54 133 66v-17q-28 -7 -49.5 -18.5t-34.5 -26.5t-20 -32.5t-7 -36.5q0 -29 11 -76q11 -48 11 -80
q0 -50 -36 -96t-108 -72q70 -26 107 -74q37 -47 37 -97q0 -32 -11 -80q-11 -46 -11 -76q0 -18 7 -35.5t20 -32.5t34.5 -26.5t49.5 -18.5z" />
    <glyph glyph-name="bar" unicode="|" horiz-adv-x="201" 
d="M120 697v-913h-41v913h41z" />
    <glyph glyph-name="braceright" unicode="}" horiz-adv-x="482" 
d="M87 680v17q82 -12 133 -66q51 -55 51 -123q0 -34 -11.5 -81.5t-11.5 -72.5q0 -36 30 -66q31 -31 82 -38v-20q-52 -6 -82 -37q-30 -30 -30 -66q0 -25 12 -73q11 -48 11 -81q0 -67 -51 -122t-133 -67v18q57 14 83.5 45t26.5 68q0 28 -11 76t-11 80q0 50 36 96q37 47 109 72
q-70 26 -108 74q-37 47 -37 97q0 32 11 80q11 49 11 76q0 19 -6.5 36.5t-20 32.5t-34 26.5t-49.5 18.5z" />
    <glyph glyph-name="asciitilde" unicode="~" horiz-adv-x="543" 
d="M511 331h22q-3 -65 -37 -100q-34 -36 -83 -36q-23 0 -49 7q-13 4 -46.5 17t-87.5 35q-75 32 -108 32q-34 0 -57.5 -21t-33.5 -69h-21q3 66 36 101t78 35q21 0 45 -7q25 -7 58.5 -19.5t74.5 -30.5q84 -35 117 -35q37 0 62 23t30 68z" />
    <glyph glyph-name="Euro" unicode="&#x20ac;" 
d="M415 361h-281q-2 -20 -2 -41h271l-12 -38h-258q4 -103 41 -172q44 -81 118 -81q66 0 110 34q27 20 67 77l15 -10q-21 -34 -40 -57.5t-36 -37.5q-57 -46 -136 -46q-112 0 -174 93q-50 75 -60 200h-48l10 38h36v8q0 8 0.5 16t0.5 17h-47l10 38h41q17 116 80 192
q72 87 184 87q84 0 166 -43v-147h-19q-12 158 -147 158q-78 0 -123 -82q-34 -64 -45 -165h289z" />
    <glyph glyph-name="quotesinglbase" unicode="&#x201a;" horiz-adv-x="334" 
d="M99 -166v21q51 18 78 52q28 35 28 74q0 9 -4 16q-4 3 -7 3q-5 0 -23 -8q-9 -5 -19 -5q-24 0 -38.5 14t-14.5 39q0 24 19 41q18 17 45 17q32 0 57 -28t25 -74q0 -25 -8.5 -49t-26 -45t-45 -38.5t-66.5 -29.5z" />
    <glyph glyph-name="florin" unicode="&#x192;" 
d="M337 429h87l-9 -33h-85q-13 -66 -34 -152t-50 -195q-46 -166 -100 -219q-42 -40 -85 -40q-28 0 -44 14.5t-16 36.5q0 19 11.5 31.5t26.5 12.5q12 0 22 -9t10 -19t-7 -18q-5 -6 -5 -10q0 -3 3.5 -6.5t8.5 -3.5q10 0 18 5q15 8 29 31t29 87q2 6 12.5 56t30.5 147
q2 8 16.5 70.5t43.5 180.5h-87l8 33q48 3 60 7q13 4 21 16q13 17 30 65q36 105 68 134q33 29 72 29q16 0 28.5 -4.5t21 -12t13 -17.5t4.5 -21q0 -17 -9.5 -27.5t-23.5 -10.5q-13 0 -22 8.5t-9 18.5q0 8 6 17q5 10 5 13q0 6 -4 10q-4 3 -13 3q-16 0 -29 -12q-17 -16 -22 -41
q-7 -30 -14.5 -73.5t-16.5 -101.5z" />
    <glyph glyph-name="quotedblbase" unicode="&#x201e;" horiz-adv-x="445" 
d="M56 -154v21q49 28 65 51t16 52q0 14 -5 21q-6 7 -12 7q-4 0 -15.5 -4t-21.5 -4t-19.5 4t-16 10t-10.5 15.5t-4 19.5q0 24 18 41q20 18 47 18q32 0 58 -28t26 -70q0 -50 -33 -94q-33 -42 -93 -60zM290 -154v21q43 22 61.5 46.5t18.5 53.5q0 18 -4.5 24.5t-10.5 6.5
t-17.5 -4t-19.5 -4q-20 0 -35 14q-15 16 -15 36q0 24 18 41q19 17 45 17q33 0 59 -29q27 -28 27 -69q0 -49 -33 -91q-33 -43 -94 -63z" />
    <glyph glyph-name="ellipsis" unicode="&#x2026;" horiz-adv-x="1003" 
d="M167 95q24 0 39 -16t15 -38q0 -12 -4 -21.5t-11.5 -16.5t-17.5 -11.5t-21 -4.5t-21 4.5t-17 11.5t-11.5 16.5t-4.5 21.5q0 23 15 38q17 16 39 16zM502 95q11 0 21 -4.5t17 -11.5t11.5 -17t4.5 -21q0 -12 -4.5 -21.5t-11.5 -16.5t-17 -11.5t-21 -4.5q-12 0 -21.5 4.5
t-17 11.5t-12 16.5t-4.5 21.5q0 23 16 38q17 16 39 16zM836 95q12 0 21.5 -4.5t17 -11.5t12 -17t4.5 -21q0 -12 -4.5 -21.5t-12 -16.5t-17 -11.5t-21.5 -4.5q-11 0 -21 4.5t-17 11.5t-11.5 16.5t-4.5 21.5q0 23 15.5 38.5t38.5 15.5z" />
    <glyph glyph-name="dagger" unicode="&#x2020;" 
d="M257 -205h-18q-1 107 -5 192t-11 151q-10 98 -34 185q25 21 36 45t14 71q-16 -2 -32 -6t-33 -11q-52 -22 -75 -22q-22 0 -36 13t-14 34q0 10 4 19t11 15.5t16 10t20 3.5q12 0 22 -3q3 -1 15.5 -6t36.5 -15q29 -12 65 -15q-1 21 -4 31q-3 14 -15 42q-26 62 -26 95
q0 14 4.5 25.5t12 20t17.5 13t21 4.5q20 0 37 -18q16 -18 16 -45q0 -14 -4 -30q-2 -9 -7.5 -24.5t-14.5 -36.5q-17 -42 -19 -77q35 3 64 15q25 10 39 15t18 6q11 3 22 3q23 0 37.5 -14t14.5 -34t-14 -33.5t-36 -13.5q-27 0 -81 23q-12 5 -20 8t-13.5 4t-13 2t-17.5 2
q2 -46 13 -71t36 -45q-12 -45 -20 -89.5t-13 -88.5q-10 -89 -16 -350z" />
    <glyph glyph-name="daggerdbl" unicode="&#x2021;" 
d="M260 478q3 -32 12 -48q9 -15 34 -35q-24 -36 -36 -71q-10 -33 -10 -87q0 -49 10 -83q5 -16 14 -34t22 -37q-23 -19 -33 -36q-9 -15 -13 -47q9 1 16 2.5t11 2.5q9 3 35 14q43 17 66 17q21 0 33.5 -12.5t12.5 -29.5q0 -20 -13 -32.5t-32 -12.5q-22 0 -63 18q-11 5 -20 7.5
t-16 4.5q-5 1 -13 2t-17 2q2 -15 3.5 -24.5t2.5 -14.5q2 -11 10 -28q25 -54 25 -80q0 -22 -14.5 -37t-35.5 -15q-10 0 -19 4.5t-15.5 11.5t-10.5 16.5t-4 20.5q0 12 3 25q2 6 7 20t13 36q6 15 9.5 31.5t5.5 33.5q-21 -1 -35 -4q-12 -3 -36 -14q-37 -16 -55 -16q-21 0 -33 12
t-12 31t13 31.5t34 12.5q19 0 55 -16q25 -10 38 -13q5 -1 12.5 -2t18.5 -2q-4 30 -14 46q-8 15 -33 34q23 31 32 59q16 44 16 101t-16 100q-10 28 -32 52q24 18 32 33q10 16 15 50q-10 -1 -17 -2t-12 -2q-4 -1 -14.5 -5t-27.5 -10q-34 -14 -58 -14q-18 0 -30.5 12.5
t-12.5 30.5q0 19 12 31t31 12q23 0 64 -17q25 -10 37 -13q5 -1 11.5 -2t16.5 -2q0 20 -4 31q-5 20 -22 63q-11 27 -11 29q-2 8 -2 22q0 25 14 40t35 15t34.5 -14.5t13.5 -42.5q0 -15 -3 -25q-2 -10 -18 -44q-14 -35 -17 -74q10 1 18 1.5t12.5 1.5t14 5t23.5 9q38 17 62 17
q19 0 31.5 -12t12.5 -31t-13 -31.5t-33 -12.5q-23 0 -62 17q-13 5 -21.5 8.5t-13.5 4.5q-11 3 -31 4z" />
    <glyph glyph-name="circumflex" unicode="&#x2c6;" horiz-adv-x="334" 
d="M41 625v-55h252v55h-252z" />
    <glyph glyph-name="perthousand" unicode="&#x2030;" horiz-adv-x="1003" 
d="M598 680l-476 -706h-44l476 706h44zM173 680q38 0 71 -22q17 -11 30 -27.5t22 -37t14 -44t5 -49.5q0 -83 -42 -130q-41 -47 -98 -47q-36 0 -71 21q-33 22 -52.5 63t-19.5 94q0 51 19 93q19 43 52 64.5t70 21.5zM171 654q-15 0 -25 -8q-16 -14 -24 -43q-11 -37 -11 -105
q0 -90 23 -126q16 -25 40 -25q22 0 39 26q24 38 24 132q0 87 -24 123q-17 26 -42 26zM504 330q36 0 69 -22t52 -64q20 -41 20 -91q0 -54 -19 -95t-54 -62q-35 -22 -69 -22q-56 0 -99 47q-42 48 -42 130q0 52 19 94q20 43 54 64t69 21zM502 304q-15 0 -26 -10
q-17 -13 -27 -45q-9 -29 -9 -102q0 -89 23 -123q15 -24 39 -24t40 24q24 37 24 124q0 92 -25 131q-15 25 -39 25zM829 330q32 0 68 -22q36 -21 55 -61t19 -90q0 -59 -18 -100q-18 -39 -53 -61q-34 -22 -71 -22q-35 0 -69 22q-34 21 -52.5 61t-18.5 90q0 57 18.5 100t54.5 62
q36 21 67 21zM829 304q-25 0 -40 -23q-22 -36 -22 -132q0 -90 23 -125q16 -24 40 -24q16 0 26 9q17 14 26 46q10 34 10 106q0 83 -23 118q-16 25 -40 25z" />
    <glyph glyph-name="Scaron" unicode="&#x160;" horiz-adv-x="558" 
d="M460 680v-230h-18q-9 66 -32 105q-23 40 -65 62q-42 23 -87 23q-51 0 -84 -31t-33 -71q0 -30 21 -55q30 -37 144 -98q94 -50 127 -77q34 -26 52.5 -62.5t18.5 -75.5q0 -76 -59 -130q-57 -54 -150 -54q-28 0 -54 4q-16 2 -64 17q-47 16 -60 16q-12 0 -19 -7.5t-11 -29.5
h-18v227h18q7 -36 15.5 -63t19.5 -45q21 -35 65 -58q45 -24 98 -24q61 0 96 32q36 33 36 77q0 25 -13.5 49.5t-41.5 46.5q-19 14 -105 62t-121 76q-36 29 -54.5 63t-18.5 76q0 71 55 123q54 52 139 52q52 0 112 -26q27 -13 39 -13q13 0 21 8t13 31h18zM322 716h-91l-93 163
h16l133 -104l113 104h14z" />
    <glyph glyph-name="guilsinglleft" unicode="&#x2039;" horiz-adv-x="334" 
d="M276 -3h-28l-190 230l190 231h28l-120 -231z" />
    <glyph glyph-name="OE" unicode="&#x152;" horiz-adv-x="892" 
d="M541 628v-262h90q56 0 79.5 23t22.5 73h20v-231h-20q-4 60 -25 79q-20 20 -77 20h-90v-220q0 -39 5 -50.5t16 -18.5q8 -4 38 -4h51q59 0 81 7q25 6 49 29q37 33 63 94h20l-53 -167h-238h-84q-5 0 -81 -4q-53 -3 -71 -3q-84 0 -152 41q-67 42 -108 122q-40 81 -40 175
q0 127 69 223q83 116 241 116q6 0 29.5 -0.5t65.5 -2.5q35 -1 67.5 -2t63.5 -1h232l6 -146h-16q-12 58 -21 73q-12 20 -38 31q-15 6 -70 6h-125zM447 511q0 64 -9 83q-9 21 -26 31q-25 14 -63 14q-61 0 -107 -36t-70 -110q-23 -74 -23 -166q0 -76 21 -147q10 -36 27 -64.5
t39.5 -48t50.5 -30t60 -10.5q38 0 60 12q23 13 31 35q9 24 9 93v344z" />
    <glyph glyph-name="quoteleft" unicode="&#x2018;" horiz-adv-x="334" 
d="M218 680v-21q-25 -16 -42 -30t-27 -27q-13 -19 -13 -45q0 -16 6 -23q5 -7 13 -7q5 0 14 3q13 5 21 5q20 0 35 -15t15 -37q0 -25 -15 -39q-22 -18 -49 -18q-33 0 -59 28t-26 69q0 58 43 105q29 32 84 52z" />
    <glyph glyph-name="quoteright" unicode="&#x2019;" horiz-adv-x="334" 
d="M117 426v23q50 29 68 56q13 18 13 44q0 15 -5 23q-6 7 -13 7q-6 0 -14 -3q-13 -5 -21 -5q-20 0 -35 15t-15 37q0 24 15 38q21 19 49 19q33 0 59 -28q26 -27 26 -69q0 -57 -44 -105q-28 -32 -83 -52z" />
    <glyph glyph-name="quotedblleft" unicode="&#x201c;" horiz-adv-x="445" 
d="M160 680v-21q-43 -22 -62 -46.5t-19 -53.5q0 -17 5 -23q5 -7 11 -7t17 3.5t20 3.5q10 0 19 -4t16 -11t11 -16.5t4 -19.5q0 -24 -18 -41t-45 -17q-33 0 -60 29q-26 29 -26 70q0 49 32 91q33 43 95 63zM393 678v-19q-25 -14 -41 -26.5t-24 -23.5q-15 -24 -15 -53
q0 -14 5 -21t11 -7t16.5 4t21.5 4q20 0 35 -15q15 -13 15 -35q0 -24 -19 -42q-18 -17 -46 -17q-33 0 -59 28q-25 28 -25 69q0 52 32 94q34 42 93 60z" />
    <glyph glyph-name="quotedblright" unicode="&#x201d;" horiz-adv-x="445" 
d="M56 427v21q50 28 65 50q16 23 16 53q0 14 -5 21q-6 7 -12 7q-4 0 -15.5 -4t-21.5 -4t-19.5 4t-16 10.5t-10.5 15.5t-4 20q0 23 18 41q20 18 47 18q32 0 58 -28t26 -70q0 -51 -33 -94t-93 -61zM290 427v21q43 22 61.5 46.5t18.5 53.5q0 18 -4.5 24.5t-10.5 6.5t-17.5 -4
t-19.5 -4q-20 0 -35 14q-15 16 -15 37q0 24 18 40q19 18 45 18q33 0 59 -29q27 -29 27 -70q0 -49 -33 -92q-33 -42 -94 -62z" />
    <glyph glyph-name="bullet" unicode="&#x2022;" horiz-adv-x="351" 
d="M178 455q50 0 86.5 -36.5t36.5 -86.5q0 -51 -36 -88q-36 -35 -87 -35q-52 0 -87.5 35.5t-35.5 87.5q0 51 36 86q36 37 87 37z" />
    <glyph glyph-name="endash" unicode="&#x2013;" 
d="M510 222h-518v36h518v-36z" />
    <glyph glyph-name="emdash" unicode="&#x2014;" horiz-adv-x="1003" 
d="M1012 222h-1020v36h1020v-36z" />
    <glyph glyph-name="tilde" unicode="&#x2dc;" horiz-adv-x="334" 
d="M26 537h-15q2 68 27.5 97.5t64.5 29.5q20 0 37 -6q21 -8 62 -35t60 -27q16 0 28 14q12 13 19 54h15q0 -23 -3 -40.5t-9 -31.5q-13 -27 -35.5 -41.5t-45.5 -14.5q-38 0 -96 39q-31 21 -42 25q-11 5 -21 5q-20 0 -32 -18q-2 -4 -6 -16.5t-8 -33.5z" />
    <glyph glyph-name="trademark" unicode="&#x2122;" horiz-adv-x="983" 
d="M25 664h357l10 -98h-16q-3 18 -9 31t-17 21.5t-28 12.5t-41 4h-37v-284q0 -41 10 -52q9 -11 42 -12v-18h-183v18q32 3 40 13q9 11 9 51v284h-38q-46 0 -66 -16q-19 -15 -27 -53h-16zM566 664l134 -280l130 280h137v-18q-28 -1 -37 -5q-9 -6 -13 -16q-5 -11 -5 -45v-229
q0 -42 10 -52q9 -10 45 -12v-18h-195v18q29 1 38 6q11 4 15 15q5 10 5 42v241l-150 -322h-16l-151 318v-236q0 -33 4 -44q4 -10 13 -15t29 -5h17v-18h-150v18q28 0 37 5q10 5 14 15q5 10 5 44v228q0 38 -5 47q-2 5 -5 8.5t-8.5 6.5t-14.5 4t-23 1v18h140z" />
    <glyph glyph-name="scaron" unicode="&#x161;" horiz-adv-x="390" 
d="M321 472v-153h-16q-18 72 -48 98q-29 26 -74 26q-34 0 -55 -18t-21 -40q0 -27 15 -47q16 -20 62 -43l72 -35q99 -48 99 -128q0 -60 -46 -98q-46 -37 -104 -37q-40 0 -94 14q-15 5 -26 5q-12 0 -18 -12h-16v159h16q14 -69 53 -103q39 -35 86 -35q34 0 55 20q22 20 22 48
q0 34 -24 57q-25 23 -95 58q-71 35 -93 64q-22 28 -22 70q0 55 38 93q37 37 98 37q26 0 64 -11q25 -8 34 -8q8 0 12 3.5t10 15.5h16zM241 516h-91l-93 163h16l133 -104l113 104h14z" />
    <glyph glyph-name="guilsinglright" unicode="&#x203a;" horiz-adv-x="334" 
d="M56 458h29l193 -232l-193 -229h-29l119 229z" />
    <glyph glyph-name="oe" unicode="&#x153;" horiz-adv-x="725" 
d="M423 281q-1 -7 -1 -11v-8q0 -46 16 -96q17 -50 49 -74.5t71 -24.5t69.5 25t47.5 82l16 -8q-17 -95 -61 -137t-105 -42q-24 0 -44 6.5t-37 16.5t-29.5 24.5t-21.5 30.5q-61 -78 -156 -78q-86 0 -145 62q-59 63 -59 168q0 112 60 178q61 67 147 67q53 0 91 -21.5t62 -55.5
q14 21 29.5 35.5t31.5 23.5q31 19 78 19q72 0 117 -49q45 -48 42 -133h-268zM222 435q-18 0 -42 -13q-24 -12 -37 -44q-19 -40 -19 -114q0 -126 50 -199q31 -44 75 -44t72.5 36.5t28.5 127.5q0 114 -33 182t-95 68zM423 313h172q0 34 -12 65q-4 12 -12 21.5t-18 16t-21 10.5
t-23 4q-32 0 -58 -30q-25 -29 -28 -87z" />
    <glyph glyph-name="Ydieresis" unicode="&#x178;" horiz-adv-x="725" 
d="M478 684h232v-18h-13q-12 0 -37 -11t-45 -32q-9 -11 -21.5 -28t-27.5 -41l-160 -252v-187q0 -61 13 -76q19 -21 59 -21h22v-18h-282v18h23q42 0 60 26q11 15 11 71v177l-183 279q-16 25 -27 40t-17 21q-11 12 -47 29q-10 5 -29 5v18h284v-18h-14q-23 0 -43 -11
q-19 -10 -19 -32q0 -18 30 -64l139 -214l130 205q29 47 29 69q-1 10 -4.5 19t-10.5 15t-20 9.5t-32 3.5v18zM459 837q11 0 20.5 -4t16.5 -11.5t11.5 -17t4.5 -20.5t-4.5 -21t-11.5 -17t-16.5 -11t-20.5 -4t-21 4t-17 11t-11.5 17t-4.5 21t4.5 20.5t11.5 17t17 11.5t21 4z
M286 837q11 0 21 -4t17 -11.5t11 -17t4 -20.5q0 -22 -15 -38q-16 -15 -38 -15q-10 0 -20 4t-17.5 11t-11.5 17t-4 21t4 20.5t11 17t17 11.5t21 4z" />
    <glyph glyph-name="exclamdown" unicode="&#xa1;" horiz-adv-x="334" 
d="M168 477q23 0 38 -16q16 -16 16 -38q0 -11 -4.5 -21t-12 -17.5t-17 -11.5t-20.5 -4q-12 0 -21.5 4t-17 11.5t-11.5 17.5t-4 21t4 21t11.5 17t17 11.5t21.5 4.5zM158 288h18l44 -396q1 -13 1.5 -23t0.5 -16q0 -16 -4 -28.5t-12 -21.5t-18 -14t-21 -5q-23 0 -39 19t-16 56
q0 6 0.5 14t1.5 19z" />
    <glyph glyph-name="cent" unicode="&#xa2;" 
d="M441 171q-23 -92 -80 -143q-44 -39 -108 -39q-40 0 -80 16l-69 -190h-34l76 209q-40 37 -58 75q-25 54 -25 122q0 125 77 192q59 51 134 51q5 0 12.5 -0.5t17.5 -1.5l68 188h36l-71 -197q49 -22 67 -43q24 -26 24 -56q0 -19 -12 -30.5t-34 -11.5q-27 0 -42 19
q-10 11 -13 40q-1 8 -3 15.5t-6 16.5l-111 -309q26 -19 46 -25q13 -5 34 -5q30 0 57 12q28 13 42 29q14 18 40 72zM181 122l110 302q-14 6 -30 6q-50 0 -79 -37q-40 -49 -40 -131q0 -36 8 -67q9 -32 31 -73z" />
    <glyph glyph-name="sterling" unicode="&#xa3;" 
d="M354 323h-126v-20v-13q0 -46 -6.5 -86t-23.5 -90q97 -31 110 -34q26 -6 50 -6q41 0 66 19t37 60l18 -5q-11 -78 -51 -119q-40 -40 -90 -40q-33 0 -60 11q-26 12 -100 67q-38 -78 -91 -78q-25 0 -41 16.5t-16 45.5q0 34 22 55q23 22 58 22q9 0 19 -1t23 -3q1 13 1 22v16
q0 43 -10 161h-95v46h95q-3 37 -4.5 61.5t-1.5 36.5q0 61 24 109q11 25 28.5 44t37.5 32t43.5 19.5t47.5 6.5q62 0 93 -33t31 -67q0 -16 -12 -28t-26 -12q-18 0 -31 19q-5 8 -7 37q-2 30 -17 43q-15 14 -43 14q-38 0 -64 -30q-25 -30 -25 -107q0 -36 6 -92q2 -18 3 -31
t2 -22h126v-46zM146 84q-21 14 -42 14q-22 0 -34 -12t-12 -31q0 -18 9.5 -28t22.5 -10q16 0 31.5 15t24.5 52z" />
    <glyph glyph-name="currency" unicode="&#xa4;" 
d="M415 361h-281q-2 -20 -2 -41h271l-12 -38h-258q4 -103 41 -172q44 -81 118 -81q66 0 110 34q27 20 67 77l15 -10q-21 -34 -40 -57.5t-36 -37.5q-57 -46 -136 -46q-112 0 -174 93q-50 75 -60 200h-48l10 38h36v8q0 8 0.5 16t0.5 17h-47l10 38h41q17 116 80 192
q72 87 184 87q84 0 166 -43v-147h-19q-12 158 -147 158q-78 0 -123 -82q-34 -64 -45 -165h289z" />
    <glyph glyph-name="yen" unicode="&#xa5;" 
d="M293 208h208v-36h-208v-52q0 -54 5 -71q4 -10 17 -18q18 -11 41 -11h20v-20h-252v20h16q33 0 51 13q11 10 16 28q2 8 2 59v52h-208v36h208v71l-8 17h-200v36h185l-105 243q-18 43 -35 57q-17 13 -45 14v18h217v-18q-18 -2 -29.5 -5t-18 -6.5t-9.5 -8.5t-3 -11q0 -7 9 -29
l105 -254l104 247q11 25 11 37q0 11 -11 20q-6 6 -31 8q-4 0 -13 2v18h169v-18q-29 0 -42 -12q-21 -16 -43 -64l-104 -238h189v-36h-205l-3 -7v-81z" />
    <glyph glyph-name="brokenbar" unicode="&#xa6;" horiz-adv-x="201" 
d="M120 697v-364h-41v364h41zM120 147v-363h-41v363h41z" />
    <glyph glyph-name="section" unicode="&#xa7;" 
d="M185 413q-33 36 -47 66t-14 61q0 57 40 97q41 41 99 41q54 0 89 -33t35 -75q0 -18 -13 -33q-9 -11 -26 -11q-16 0 -27 11.5t-11 26.5q0 6 4 26q3 12 3 21q0 21 -14.5 34t-39.5 13q-36 0 -61 -25q-24 -26 -24 -61q0 -32 13 -52q22 -35 74 -72q50 -36 83.5 -67.5
t51.5 -60.5q25 -40 25 -84q0 -22 -6 -44.5t-19.5 -44.5t-34 -41.5t-48.5 -36.5q34 -38 47 -66q13 -27 13 -58q0 -60 -40 -100t-99 -40q-53 0 -88 34q-35 33 -35 76q0 18 11.5 30.5t26.5 12.5q16 0 26.5 -11.5t10.5 -30.5q0 -13 -4 -29q-4 -17 -4 -25q0 -14 13 -23
q19 -15 46 -15q33 0 59 26q27 25 27 55t-15 54q-23 37 -85 83q-92 68 -126 121q-25 39 -25 84q0 46 26.5 89t82.5 77zM200 398q-74 -45 -74 -109q0 -35 19 -63q12 -20 36 -43.5t60 -50.5q17 -12 32 -24.5t28 -24.5q75 45 75 108q0 31 -21.5 66t-88.5 87q-21 16 -37 29.5
t-29 24.5z" />
    <glyph glyph-name="dieresis" unicode="&#xa8;" horiz-adv-x="334" 
d="M254 655q11 0 20.5 -4t16.5 -11.5t11.5 -17t4.5 -20.5t-4.5 -21t-11.5 -17t-16.5 -11t-20.5 -4t-21 4t-17 11t-11.5 17t-4.5 21t4.5 20.5t11.5 17t17 11.5t21 4zM81 655q11 0 21 -4t17 -11.5t11 -17t4 -20.5q0 -22 -15 -38q-16 -15 -38 -15q-10 0 -20 4t-17.5 11
t-11.5 17t-4 21t4 20.5t11 17t17 11.5t21 4z" />
    <glyph glyph-name="copyright" unicode="&#xa9;" horiz-adv-x="762" 
d="M381 680q88 0 171 -46q84 -45 130 -128q47 -83 47 -174q0 -90 -46 -173q-47 -83 -129 -128q-83 -45 -173 -45q-89 0 -173 45q-82 45 -128 128t-46 173q0 91 46.5 174t130.5 128q83 46 170 46zM381 650q-80 0 -156 -41.5t-118 -117.5q-43 -76 -43 -159q0 -82 42 -158
q42 -75 117 -117q76 -42 158 -42t158 42t118 117q42 76 42 158q0 83 -43 159t-119 118q-75 41 -156 41zM553 556l10 -138h-19q-18 59 -56 87.5t-93 28.5q-40 0 -71 -16.5t-52 -44.5q-14 -21 -24 -56t-10 -74q0 -104 44.5 -153t117.5 -49q96 0 153 79l18 -9q-68 -99 -187 -99
q-98 0 -163 63q-64 64 -64 154q0 94 68 160q68 67 176 67q22 0 37 -3q8 -1 21 -5t32 -11q14 -3 19 -3q7 0 12.5 4t11.5 18h19z" />
    <glyph glyph-name="ordfeminine" unicode="&#xaa;" horiz-adv-x="277" 
d="M167 578q0 54 -14 70q-12 16 -38 16q-46 0 -46 -43q0 -22 -8.5 -32t-20.5 -10q-11 0 -19 8t-8 21q0 27 27 49q29 21 87 21q45 0 69 -15q25 -16 31 -31q7 -17 7 -54v-107q0 -25 1 -30q2 -5 6 -9q3 -3 6 -3q7 0 28 14v-23q-18 -13 -29.5 -21t-18.5 -10q-11 -5 -25 -5
q-12 0 -21.5 10t-13.5 36q-63 -44 -106 -44q-25 0 -45 18q-18 19 -18 42q0 22 10 38q15 23 52 46q27 15 107 48zM167 560q-60 -21 -81 -44t-21 -47q0 -8 3.5 -15.5t9 -13.5t13.5 -9.5t18 -3.5q21 0 58 22v111z" />
    <glyph glyph-name="guillemotleft" unicode="&#xab;" 
d="M249 -3h-28l-190 230l190 231h28l-120 -231zM470 -3h-28l-193 230l193 231h28l-119 -231z" />
    <glyph glyph-name="logicalnot" unicode="&#xac;" horiz-adv-x="566" 
d="M18 430h529v-199h-39v159h-490v40z" />
    <glyph glyph-name="registered" unicode="&#xae;" horiz-adv-x="762" 
d="M381 680q88 0 171 -46q84 -45 130 -128q47 -83 47 -174q0 -90 -46 -173q-47 -83 -129 -128q-83 -45 -173 -45q-89 0 -173 45q-82 45 -128 128t-46 173q0 91 46.5 174t130.5 128q83 46 170 46zM381 650q-80 0 -156 -41.5t-118 -117.5q-43 -76 -43 -159q0 -82 42 -158
q42 -75 117 -117q76 -42 158 -42t158 42t118 117q42 76 42 158q0 83 -43 159t-119 118q-75 41 -156 41zM189 546h189q71 0 109 -33q37 -31 37 -77q0 -37 -25.5 -65.5t-83.5 -43.5l102 -146q19 -26 34 -35q10 -6 26 -8v-16h-90l-145 198h-37v-151q3 -16 14 -23q11 -8 44 -8
v-16h-180v16q24 0 33.5 5.5t14.5 16.5q3 8 3 46v256q0 36 -1 43q-4 11 -13 17t-31 6v18zM305 341q58 0 84.5 11.5t41 31.5t14.5 47q0 39 -28 66q-27 27 -71 27q-19 0 -41 -8v-175z" />
    <glyph glyph-name="degree" unicode="&#xb0;" horiz-adv-x="401" 
d="M198 679q64 0 107 -44q44 -44 44 -107q0 -62 -44 -106t-107 -44q-62 0 -106 44t-44 106t44 107q44 44 106 44zM198 638q-45 0 -77 -32t-32 -77t32 -78q32 -32 77 -32q46 0 77 32q33 33 33 78t-32 77t-78 32z" />
    <glyph glyph-name="plusminus" unicode="&#xb1;" horiz-adv-x="551" 
d="M4 69v40h244v205h-244v40h244v243h39v-243h245v-40h-245v-205h246v-40h-529z" />
    <glyph glyph-name="twosuperior" unicode="&#xb2;" horiz-adv-x="301" 
d="M282 400l-30 -75h-242v15q121 94 161 153q24 36 24 70q0 30 -21 50q-19 21 -51 21q-27 0 -48.5 -14.5t-31.5 -43.5h-22q6 48 37 75t81 27q53 0 84 -28q33 -29 33 -64q0 -32 -23 -69q-37 -57 -145 -145h91q43 0 57 6t24 22h22z" />
    <glyph glyph-name="threesuperior" unicode="&#xb3;" horiz-adv-x="301" 
d="M27 602q18 36 40 53q31 23 73 23q45 0 71 -22q26 -23 26 -50q0 -33 -52 -76q35 -13 53 -36.5t18 -52.5q0 -51 -42 -87t-120 -36q-41 0 -60 12q-12 8 -12 19q0 8 8 15t20 7q15 0 40 -12q26 -12 45 -12q27 0 47 19q19 20 19 46q0 11 -3 22t-9.5 20t-15 16.5t-18.5 11.5
q-30 11 -53 11h-14v14q37 0 63 23t26 53q0 24 -16 39t-43 15q-43 0 -72 -43z" />
    <glyph glyph-name="acute" unicode="&#xb4;" horiz-adv-x="334" 
d="M277 681l-145 -169h-16l51 169h110z" />
    <glyph glyph-name="mu" unicode="&#xb5;" horiz-adv-x="538" 
d="M357 81q-89 -94 -155 -94q-42 0 -78 32v-25q0 -46 14 -91q15 -51 15 -67q0 -22 -14 -37t-35 -15q-22 0 -34.5 17.5t-12.5 41.5q0 16 13 63q14 51 14 98v445h81v-291q0 -44 7 -64q8 -21 27.5 -34t44.5 -13q43 0 113 60v342h81v-341q0 -21 2 -35.5t7 -23.5t12 -13t18 -4
q34 0 43 66h17q-9 -111 -94 -111q-36 0 -60.5 24.5t-25.5 69.5z" />
    <glyph glyph-name="paragraph" unicode="&#xb6;" horiz-adv-x="455" 
d="M391 637v-853h-35v853h-92v-853h-36v510q-93 4 -140 25q-46 22 -70 64q-24 43 -24 98q0 54 20 88q14 23 33 41t43 30t54.5 18t69.5 6h242v-27h-65z" />
    <glyph glyph-name="cedilla" unicode="&#xb8;" horiz-adv-x="334" 
d="M177 8h29l-24 -38q31 -8 46 -26.5t15 -44.5q0 -36 -29 -62q-29 -27 -76 -27q-10 0 -21 0.5t-25 2.5v21q6 -1 12 -1.5t11 -0.5q26 0 42 17q17 16 17 37q0 15 -11 26t-28 11q-2 0 -5.5 -0.5t-7.5 -0.5z" />
    <glyph glyph-name="onesuperior" unicode="&#xb9;" horiz-adv-x="301" 
d="M67 635l100 43h17v-290q0 -29 3 -36q3 -5 8 -7q9 -4 39 -4v-16h-160v16q32 0 40 3q6 3 8 8q2 6 2 36v183q0 34 -2 46q-3 15 -15 15q-9 0 -33 -10z" />
    <glyph glyph-name="ordmasculine" unicode="&#xba;" horiz-adv-x="311" 
d="M159 678q61 0 100 -42q40 -40 40 -101t-43 -105t-104 -44q-57 0 -98 39q-40 40 -40 102q0 67 40 109q41 42 105 42zM145 657q-13 0 -24 -5.5t-19.5 -16.5t-13.5 -28.5t-5 -41.5q0 -78 34 -126q19 -28 50 -28q28 0 46.5 21.5t18.5 68.5q0 77 -35 126q-22 30 -52 30z" />
    <glyph glyph-name="guillemotright" unicode="&#xbb;" 
d="M253 458h28l189 -232l-189 -229h-28l119 229zM31 458h29l193 -232l-193 -229h-29l119 229z" />
    <glyph glyph-name="onequarter" unicode="&#xbc;" horiz-adv-x="753" 
d="M66 635l100 43h17v-290q0 -29 3 -36q3 -5 8 -7q9 -4 39 -4v-16h-160v16q32 0 40 3q6 3 8 8q2 6 2 36v183q0 34 -2 46q-3 15 -15 15q-9 0 -33 -10zM633 678l-458 -703h-44l458 703h44zM735 110v-40h-52v-89h-58v89h-168v36l184 228h42v-224h52zM625 110v155l-127 -155h127
z" />
    <glyph glyph-name="onehalf" unicode="&#xbd;" horiz-adv-x="753" 
d="M66 635l100 43h17v-290q0 -29 3 -36q3 -5 8 -7q9 -4 39 -4v-16h-160v16q32 0 40 3q6 3 8 8q2 6 2 36v183q0 34 -2 46q-3 15 -15 15q-9 0 -33 -10zM621 678l-458 -703h-43l458 703h43zM732 55l-30 -74h-242v15q121 93 161 152q24 37 24 71q0 30 -20 49q-20 21 -51 21
q-28 0 -49 -14t-32 -44h-22q7 48 37.5 75.5t80.5 27.5q52 0 85 -29t33 -63q0 -32 -24 -70q-37 -57 -145 -144h92q41 0 56 5q15 7 24 22h22z" />
    <glyph glyph-name="threequarters" unicode="&#xbe;" horiz-adv-x="753" 
d="M626 678l-456 -703h-45l459 703h42zM26 602q18 36 40 53q32 23 73 23q45 0 71 -22q26 -23 26 -50q0 -33 -52 -76q36 -13 53.5 -36.5t17.5 -52.5q0 -51 -42 -87t-120 -36q-41 0 -60 12q-12 8 -12 19q0 8 8 15t20 7q15 0 40 -12q26 -12 45 -12q27 0 47 19q19 20 19 46
q0 35 -28 59q-26 23 -85 22v14q37 0 63 23t26 53q0 24 -16 39t-43 15q-43 0 -72 -43zM735 110v-40h-52v-89h-57v89h-169v36l184 228h42v-224h52zM626 110v155l-128 -155h128z" />
    <glyph glyph-name="questiondown" unicode="&#xbf;" horiz-adv-x="445" 
d="M221 478q12 0 21.5 -4.5t17 -12t12 -17t4.5 -21.5q0 -11 -4.5 -21t-12 -17t-17 -11.5t-21.5 -4.5q-11 0 -20.5 4.5t-17 11.5t-12 17t-4.5 21q0 12 4.5 21.5t12 17t17 12t20.5 4.5zM216 307h19q-1 -31 -4 -55t-8 -42q-9 -35 -50 -120q-40 -85 -40 -141q0 -65 32 -100
t83 -35q43 0 67.5 20t24.5 44q0 16 -15 42q-15 25 -15 41q0 17 11.5 28t27.5 11q20 0 37.5 -20t17.5 -53q0 -57 -48 -99q-48 -44 -131 -44t-132 46t-49 110q0 40 14 73q21 49 73 109q53 61 67 94q15 33 18 91z" />
    <glyph glyph-name="Agrave" unicode="&#xc0;" horiz-adv-x="725" 
d="M459 222h-257l-45 -104q-17 -39 -17 -58q0 -15 14 -27q15 -11 63 -15v-18h-209v18q41 7 54 19q25 24 55 96l234 547h17l231 -553q28 -67 50.5 -86.5t63.5 -22.5v-18h-262v18q20 1 33 4.5t20.5 9t11 12.5t3.5 15q0 22 -20 68zM445 259l-112 268l-116 -268h228zM252 880
h109l52 -169h-17z" />
    <glyph glyph-name="Aacute" unicode="&#xc1;" horiz-adv-x="725" 
d="M459 222h-257l-45 -104q-17 -39 -17 -58q0 -15 14 -27q15 -11 63 -15v-18h-209v18q41 7 54 19q25 24 55 96l234 547h17l231 -553q28 -67 50.5 -86.5t63.5 -22.5v-18h-262v18q20 1 33 4.5t20.5 9t11 12.5t3.5 15q0 22 -20 68zM445 259l-112 268l-116 -268h228zM470 880
l-145 -169h-16l51 169h110z" />
    <glyph glyph-name="Acircumflex" unicode="&#xc2;" horiz-adv-x="725" 
d="M227 822v-56h272v56h-272zM459 222h-257l-45 -104q-9 -20 -13 -34t-4 -24q0 -16 14 -27q8 -6 23.5 -9t39.5 -6v-18h-209v18q41 7 54 19q12 12 26 36t29 60l234 547h17l231 -553q14 -34 26.5 -55.5t24.5 -31.5q21 -19 63 -22v-18h-262v18q20 1 33 4.5t20.5 9t11 12.5
t3.5 15q0 21 -20 68zM445 259l-112 268l-116 -268h228z" />
    <glyph glyph-name="Atilde" unicode="&#xc3;" horiz-adv-x="725" 
d="M459 222h-257l-45 -104q-17 -39 -17 -58q0 -15 14 -27q15 -11 63 -15v-18h-209v18q41 7 54 19q25 24 55 96l234 547h17l231 -553q28 -67 50.5 -86.5t63.5 -22.5v-18h-262v18q20 1 33 4.5t20.5 9t11 12.5t3.5 15q0 22 -20 68zM445 259l-112 268l-116 -268h228zM220 717
h-15q2 68 27.5 97.5t64.5 29.5q20 0 37 -6q21 -8 62 -35t60 -27q16 0 28 14q12 13 19 54h15q0 -23 -3 -40.5t-9 -31.5q-13 -27 -35.5 -41.5t-45.5 -14.5q-38 0 -96 39q-31 21 -42 25q-11 5 -21 5q-20 0 -32 -18q-2 -4 -6 -16.5t-8 -33.5z" />
    <glyph glyph-name="Adieresis" unicode="&#xc4;" horiz-adv-x="725" 
d="M459 222h-257l-45 -104q-17 -39 -17 -58q0 -15 14 -27q15 -11 63 -15v-18h-209v18q41 7 54 19q25 24 55 96l234 547h17l231 -553q28 -67 50.5 -86.5t63.5 -22.5v-18h-262v18q20 1 33 4.5t20.5 9t11 12.5t3.5 15q0 22 -20 68zM445 259l-112 268l-116 -268h228zM447 837
q11 0 20.5 -4t16.5 -11.5t11.5 -17t4.5 -20.5t-4.5 -21t-11.5 -17t-16.5 -11t-20.5 -4t-21 4t-17 11t-11.5 17t-4.5 21t4.5 20.5t11.5 17t17 11.5t21 4zM274 837q11 0 21 -4t17 -11.5t11 -17t4 -20.5q0 -22 -15 -38q-16 -15 -38 -15q-10 0 -20 4t-17.5 11t-11.5 17t-4 21
t4 20.5t11 17t17 11.5t21 4z" />
    <glyph glyph-name="Aring" unicode="&#xc5;" horiz-adv-x="725" 
d="M459 222h-257l-45 -104q-17 -39 -17 -58q0 -15 14 -27q15 -11 63 -15v-18h-209v18q41 7 54 19q25 24 55 96l234 547h17l231 -553q28 -67 50.5 -86.5t63.5 -22.5v-18h-262v18q20 1 33 4.5t20.5 9t11 12.5t3.5 15q0 22 -20 68zM445 259l-112 268l-116 -268h228zM358 834
q39 0 66.5 -27.5t27.5 -66.5t-27.5 -66.5t-66.5 -27.5t-66.5 27.5t-27.5 66.5t27 66q28 28 67 28zM358 800q-25 0 -43 -18q-17 -17 -17 -42q0 -24 17 -42q18 -18 43 -18q26 0 42 18q18 18 18 42q0 26 -18 42q-16 18 -42 18z" />
    <glyph glyph-name="AE" unicode="&#xc6;" horiz-adv-x="892" 
d="M503 628v-262h126q57 0 79 21q24 22 27 75h18v-231h-18q-5 49 -16 66q-10 17 -33 27q-12 6 -57 6h-126v-220q0 -45 4 -54q1 -4 4.5 -7.5t9.5 -6.5t15.5 -4.5t23.5 -1.5h89q54 0 82 9q29 9 56 34q36 33 59 88h18l-53 -167h-498v18h25q40 0 59 24q12 16 12 75v140h-194
l-61 -114q-34 -64 -34 -85q0 -13 15 -25q15 -11 62 -15v-18h-208v18q21 1 36 9.5t34 31.5q17 22 46 75l202 378q37 70 37 95q0 15 -13 24q-16 12 -71 15v18h544l7 -146h-16q-7 52 -25 77q-13 19 -38 28q-13 5 -67 5h-162zM409 628l-175 -335h175v335z" />
    <glyph glyph-name="Ccedilla" unicode="&#xc7;" horiz-adv-x="669" 
d="M604 680l15 -226h-15q-15 51 -37 87t-50 59t-61.5 33.5t-73.5 10.5q-65 0 -119 -34q-54 -33 -84.5 -106t-30.5 -183q0 -90 29 -156q29 -67 87 -102t132 -35q65 0 115 27q49 28 108 111l15 -10q-24 -44 -53 -76.5t-63 -53.5t-73.5 -30.5t-84.5 -9.5q-165 0 -256 121
q-68 91 -68 215q0 100 45 183t122 129q79 46 171 46q73 0 142 -36q21 -10 30 -10q14 0 23 9q13 14 18 37h17zM342 8h29l-24 -38q31 -8 46 -26.5t15 -44.5q0 -36 -29 -62q-29 -27 -76 -27q-10 0 -21 0.5t-25 2.5v21q6 -1 12 -1.5t11 -0.5q26 0 42 17q17 16 17 37q0 15 -11 26
t-28 11q-2 0 -5.5 -0.5t-7.5 -0.5z" />
    <glyph glyph-name="Egrave" unicode="&#xc8;" horiz-adv-x="613" 
d="M210 638v-272h146q56 0 76 17q25 22 28 79h18v-231h-18q-3 24 -6.5 39.5t-7.5 22.5q-4 9 -11 15.5t-17.5 11.5t-26 7.5t-35.5 2.5h-146v-219q0 -44 4 -54q2 -5 5 -8.5t8.5 -6.5t14.5 -4.5t23 -1.5h112q57 0 82 8q26 8 49 31q31 31 62 92h20l-57 -167h-512v18h23
q23 0 45 11q16 9 21 24q6 16 6 64v442q0 62 -13 78q-18 19 -59 19h-23v18h512l7 -145h-19q-10 51 -23 72q-12 19 -37 30q-20 7 -69 7h-182zM199 880h109l52 -169h-17z" />
    <glyph glyph-name="Eacute" unicode="&#xc9;" horiz-adv-x="613" 
d="M210 638v-272h146q56 0 76 17q25 22 28 79h18v-231h-18q-3 24 -6.5 39.5t-7.5 22.5q-4 9 -11 15.5t-17.5 11.5t-26 7.5t-35.5 2.5h-146v-219q0 -44 4 -54q2 -5 5 -8.5t8.5 -6.5t14.5 -4.5t23 -1.5h112q57 0 82 8q26 8 49 31q31 31 62 92h20l-57 -167h-512v18h23
q23 0 45 11q16 9 21 24q6 16 6 64v442q0 62 -13 78q-18 19 -59 19h-23v18h512l7 -145h-19q-10 51 -23 72q-12 19 -37 30q-20 7 -69 7h-182zM418 880l-145 -169h-16l51 169h110z" />
    <glyph glyph-name="Ecircumflex" unicode="&#xca;" horiz-adv-x="613" 
d="M118 823v-56h303v56h-303zM210 628v-262h146q28 0 47 4t29 13q25 22 28 79h18v-231h-18q-3 24 -6.5 39.5t-7.5 22.5q-8 17 -28.5 27t-61.5 10h-146v-219q0 -46 4 -54q2 -5 5 -8.5t8.5 -6.5t14.5 -4.5t23 -1.5h112q29 0 49 2t33 6q26 7 49 31q15 15 30.5 38t31.5 54h20
l-57 -167h-512v18h23q12 0 23 3t22 8q14 8 21 24q3 8 4.5 24t1.5 40v432q0 62 -13 78q-17 19 -59 19h-23v18h512l7 -145h-19q-10 52 -23 72t-37 30q-10 4 -27 5.5t-42 1.5h-182z" />
    <glyph glyph-name="Edieresis" unicode="&#xcb;" horiz-adv-x="613" 
d="M210 638v-272h146q56 0 76 17q25 22 28 79h18v-231h-18q-3 24 -6.5 39.5t-7.5 22.5q-4 9 -11 15.5t-17.5 11.5t-26 7.5t-35.5 2.5h-146v-219q0 -44 4 -54q2 -5 5 -8.5t8.5 -6.5t14.5 -4.5t23 -1.5h112q57 0 82 8q26 8 49 31q31 31 62 92h20l-57 -167h-512v18h23
q23 0 45 11q16 9 21 24q6 16 6 64v442q0 62 -13 78q-18 19 -59 19h-23v18h512l7 -145h-19q-10 51 -23 72q-12 19 -37 30q-20 7 -69 7h-182zM395 837q11 0 20.5 -4t16.5 -11.5t11.5 -17t4.5 -20.5t-4.5 -21t-11.5 -17t-16.5 -11t-20.5 -4t-21 4t-17 11t-11.5 17t-4.5 21
t4.5 20.5t11.5 17t17 11.5t21 4zM222 837q11 0 21 -4t17 -11.5t11 -17t4 -20.5q0 -22 -15 -38q-16 -15 -38 -15q-10 0 -20 4t-17.5 11t-11.5 17t-4 21t4 20.5t11 17t17 11.5t21 4z" />
    <glyph glyph-name="Igrave" unicode="&#xcc;" horiz-adv-x="334" 
d="M310 18v-18h-285v18h24q41 0 59 24q12 16 12 76v448q0 51 -6 66q-6 13 -20 21q-21 12 -45 12h-24v18h285v-18h-24q-42 0 -60 -24q-12 -15 -12 -75v-448q0 -51 6 -67q5 -12 21 -21q22 -12 45 -12h24zM58 880h109l52 -169h-17z" />
    <glyph glyph-name="Iacute" unicode="&#xcd;" horiz-adv-x="334" 
d="M310 18v-18h-285v18h24q41 0 59 24q12 16 12 76v448q0 51 -6 66q-6 13 -20 21q-21 12 -45 12h-24v18h285v-18h-24q-42 0 -60 -24q-12 -15 -12 -75v-448q0 -51 6 -67q5 -12 21 -21q22 -12 45 -12h24zM277 880l-145 -169h-16l51 169h110z" />
    <glyph glyph-name="Icircumflex" unicode="&#xce;" horiz-adv-x="334" 
d="M41 822v-56h252v56h-252zM310 18v-18h-285v18h24q41 0 59 24q6 7 9 26.5t3 49.5v444q0 51 -6 66q-6 14 -20 21q-22 12 -45 12h-24v18h285v-18h-24q-40 0 -60 -24q-6 -8 -9 -27t-3 -48v-444q0 -26 1.5 -42.5t4.5 -24.5q6 -13 21 -21q21 -12 45 -12h24z" />
    <glyph glyph-name="Idieresis" unicode="&#xcf;" horiz-adv-x="334" 
d="M310 18v-18h-285v18h24q41 0 59 24q12 16 12 76v448q0 51 -6 66q-6 13 -20 21q-21 12 -45 12h-24v18h285v-18h-24q-42 0 -60 -24q-12 -15 -12 -75v-448q0 -51 6 -67q5 -12 21 -21q22 -12 45 -12h24zM254 837q11 0 20.5 -4t16.5 -11.5t11.5 -17t4.5 -20.5t-4.5 -21
t-11.5 -17t-16.5 -11t-20.5 -4t-21 4t-17 11t-11.5 17t-4.5 21t4.5 20.5t11.5 17t17 11.5t21 4zM81 837q11 0 21 -4t17 -11.5t11 -17t4 -20.5q0 -22 -15 -38q-16 -15 -38 -15q-10 0 -20 4t-17.5 11t-11.5 17t-4 21t4 20.5t11 17t17 11.5t21 4z" />
    <glyph glyph-name="Eth" unicode="&#xd0;" horiz-adv-x="725" 
d="M17 0v18h25q42 0 60 28q11 15 11 72v214h-96v36h96v179q0 63 -14 78q-19 21 -57 21h-25v18h271q154 0 228 -35q74 -34 122 -112t48 -180q0 -142 -90 -239q-90 -98 -282 -98h-297zM207 49q61 -14 105 -14q113 0 188 80t75 217t-75 216.5t-192 79.5q-22 0 -47 -3.5
t-54 -10.5v-246h193v-36h-193v-283z" />
    <glyph glyph-name="Ntilde" unicode="&#xd1;" horiz-adv-x="725" 
d="M-12 682h179l406 -516v401q0 61 -13 77q-19 20 -58 20h-23v18h231v-18h-23q-42 0 -60 -25q-11 -15 -11 -72v-577h-17l-438 552v-427q0 -61 13 -76q19 -21 57 -21h24v-18h-231v18h23q42 0 60 26q11 15 11 71v480q-28 33 -45 45q-7 5 -18 10t-25 10q-14 4 -42 4v18z
M219 717h-15q2 68 27.5 97.5t64.5 29.5q20 0 37 -6q21 -8 62 -35t60 -27q16 0 28 14q12 13 19 54h15q0 -23 -3 -40.5t-9 -31.5q-13 -27 -35.5 -41.5t-45.5 -14.5q-38 0 -96 39q-31 21 -42 25q-11 5 -21 5q-20 0 -32 -18q-2 -4 -6 -16.5t-8 -33.5z" />
    <glyph glyph-name="Ograve" unicode="&#xd2;" horiz-adv-x="725" 
d="M367 680q129 0 224 -99q95 -98 95 -245q0 -151 -96 -251q-95 -99 -231 -99q-137 0 -231 96q-93 98 -93 253q0 158 108 258q94 87 224 87zM358 644q-90 0 -143 -66q-68 -83 -68 -241q0 -164 70 -251q53 -66 141 -66q93 0 154.5 73t61.5 230q0 170 -67 254q-54 67 -149 67z
M251 880h109l52 -169h-17z" />
    <glyph glyph-name="Oacute" unicode="&#xd3;" horiz-adv-x="725" 
d="M367 680q129 0 224 -99q95 -98 95 -245q0 -151 -96 -251q-95 -99 -231 -99q-137 0 -231 96q-93 98 -93 253q0 158 108 258q94 87 224 87zM358 644q-90 0 -143 -66q-68 -83 -68 -241q0 -164 70 -251q53 -66 141 -66q93 0 154.5 73t61.5 230q0 170 -67 254q-54 67 -149 67z
M469 880l-145 -169h-16l51 169h110z" />
    <glyph glyph-name="Ocircumflex" unicode="&#xd4;" horiz-adv-x="725" 
d="M207 822v-56h282v56h-282zM367 680q130 0 224 -99q95 -98 95 -245q0 -152 -96 -251q-48 -50 -105 -75t-126 -25q-68 0 -126 24.5t-105 72.5q-47 49 -70 111.5t-23 141.5q0 158 108 258q92 87 224 87zM358 644q-91 0 -143 -66q-68 -84 -68 -241q0 -165 70 -251
q54 -66 141 -66q47 0 85.5 18t68.5 55q62 73 62 230q0 86 -17 149t-50 105q-27 34 -64 50.5t-85 16.5z" />
    <glyph glyph-name="Otilde" unicode="&#xd5;" horiz-adv-x="725" 
d="M367 680q129 0 224 -99q95 -98 95 -245q0 -151 -96 -251q-95 -99 -231 -99q-137 0 -231 96q-93 98 -93 253q0 158 108 258q94 87 224 87zM358 644q-90 0 -143 -66q-68 -83 -68 -241q0 -164 70 -251q53 -66 141 -66q93 0 154.5 73t61.5 230q0 170 -67 254q-54 67 -149 67z
M218 717h-15q2 68 27.5 97.5t64.5 29.5q20 0 37 -6q21 -8 62 -35t60 -27q16 0 28 14q12 13 19 54h15q0 -23 -3 -40.5t-9 -31.5q-13 -27 -35.5 -41.5t-45.5 -14.5q-38 0 -96 39q-31 21 -42 25q-11 5 -21 5q-20 0 -32 -18q-2 -4 -6 -16.5t-8 -33.5z" />
    <glyph glyph-name="Odieresis" unicode="&#xd6;" horiz-adv-x="725" 
d="M367 680q129 0 224 -99q95 -98 95 -245q0 -151 -96 -251q-95 -99 -231 -99q-137 0 -231 96q-93 98 -93 253q0 158 108 258q94 87 224 87zM358 644q-90 0 -143 -66q-68 -83 -68 -241q0 -164 70 -251q53 -66 141 -66q93 0 154.5 73t61.5 230q0 170 -67 254q-54 67 -149 67z
M446 837q11 0 20.5 -4t16.5 -11.5t11.5 -17t4.5 -20.5t-4.5 -21t-11.5 -17t-16.5 -11t-20.5 -4t-21 4t-17 11t-11.5 17t-4.5 21t4.5 20.5t11.5 17t17 11.5t21 4zM273 837q11 0 21 -4t17 -11.5t11 -17t4 -20.5q0 -22 -15 -38q-16 -15 -38 -15q-10 0 -20 4t-17.5 11t-11.5 17
t-4 21t4 20.5t11 17t17 11.5t21 4z" />
    <glyph glyph-name="multiply" unicode="&#xd7;" horiz-adv-x="566" 
d="M81 161l173 173l-173 172l29 29l172 -173l173 173l27 -28l-172 -173l173 -173l-28 -29l-173 174l-173 -173z" />
    <glyph glyph-name="Oslash" unicode="&#xd8;" horiz-adv-x="725" 
d="M562 607l64 79l29 -22l-66 -81q52 -56 74 -113q23 -57 23 -133q0 -169 -119 -272q-92 -79 -202 -79q-52 0 -107 17q-55 19 -96 52l-64 -77l-28 22l64 80q-98 102 -98 259q0 145 96 242q96 99 231 99q111 0 199 -73zM521 556q-57 89 -160 89q-46 0 -72 -11
q-38 -15 -66 -47q-39 -43 -57 -105t-18 -141q0 -113 36 -199zM539 521l-335 -415q26 -40 57 -58q43 -28 97 -28q52 0 84 15q17 8 32 20t29 28q29 33 50 91q20 59 20 147q0 61 -9 112q-6 38 -25 88z" />
    <glyph glyph-name="Ugrave" unicode="&#xd9;" horiz-adv-x="725" 
d="M479 666v18h235v-18h-25q-39 0 -60 -33q-11 -15 -11 -70v-290q0 -99 -20 -155q-19 -55 -77.5 -94t-157.5 -39q-109 0 -165.5 37t-79.5 101q-16 45 -16 164v280q0 61 -17 80t-55 19h-25v18h288v-18h-26q-41 0 -59 -26q-12 -17 -12 -73v-310q0 -19 1.5 -41t5.5 -47
q7 -50 26 -78q18 -28 53 -46.5t86 -18.5q66 0 117 29q52 29 70 72q19 45 19 151v289q0 63 -13 78q-20 21 -57 21h-25zM276 880h109l52 -169h-17z" />
    <glyph glyph-name="Uacute" unicode="&#xda;" horiz-adv-x="725" 
d="M479 666v18h235v-18h-25q-39 0 -60 -33q-11 -15 -11 -70v-290q0 -99 -20 -155q-19 -55 -77.5 -94t-157.5 -39q-109 0 -165.5 37t-79.5 101q-16 45 -16 164v280q0 61 -17 80t-55 19h-25v18h288v-18h-26q-41 0 -59 -26q-12 -17 -12 -73v-310q0 -19 1.5 -41t5.5 -47
q7 -50 26 -78q18 -28 53 -46.5t86 -18.5q66 0 117 29q52 29 70 72q19 45 19 151v289q0 63 -13 78q-20 21 -57 21h-25zM471 880l-145 -169h-16l51 169h110z" />
    <glyph glyph-name="Ucircumflex" unicode="&#xdb;" horiz-adv-x="725" 
d="M202 822v-56h302v56h-302zM479 665v18h235v-18h-25q-39 0 -60 -33q-5 -7 -8 -24.5t-3 -45.5v-289q0 -99 -20 -155q-19 -55 -78 -94q-57 -39 -157 -39q-109 0 -166 37q-28 19 -48 44t-31 57q-8 22 -12 62.5t-4 101.5v279q0 60 -17 80q-17 19 -55 19h-25v18h288v-18h-26
q-41 0 -59 -26q-12 -17 -12 -73v-309q0 -20 1.5 -41.5t5.5 -46.5t10 -45t16 -33q18 -29 53 -47t86 -18q65 0 117 29q26 14 43.5 32t26.5 40q19 45 19 151v288q0 62 -13 78q-20 21 -57 21h-25z" />
    <glyph glyph-name="Udieresis" unicode="&#xdc;" horiz-adv-x="725" 
d="M479 666v18h235v-18h-25q-39 0 -60 -33q-11 -15 -11 -70v-290q0 -99 -20 -155q-19 -55 -77.5 -94t-157.5 -39q-109 0 -165.5 37t-79.5 101q-16 45 -16 164v280q0 61 -17 80t-55 19h-25v18h288v-18h-26q-41 0 -59 -26q-12 -17 -12 -73v-310q0 -19 1.5 -41t5.5 -47
q7 -50 26 -78q18 -28 53 -46.5t86 -18.5q66 0 117 29q52 29 70 72q19 45 19 151v289q0 63 -13 78q-20 21 -57 21h-25zM471 837q11 0 20.5 -4t16.5 -11.5t11.5 -17t4.5 -20.5t-4.5 -21t-11.5 -17t-16.5 -11t-20.5 -4t-21 4t-17 11t-11.5 17t-4.5 21t4.5 20.5t11.5 17t17 11.5
t21 4zM298 837q11 0 21 -4t17 -11.5t11 -17t4 -20.5q0 -22 -15 -38q-16 -15 -38 -15q-10 0 -20 4t-17.5 11t-11.5 17t-4 21t4 20.5t11 17t17 11.5t21 4z" />
    <glyph glyph-name="Yacute" unicode="&#xdd;" horiz-adv-x="725" 
d="M478 684h232v-18h-13q-12 0 -37 -11t-45 -32q-9 -11 -21.5 -28t-27.5 -41l-160 -252v-187q0 -61 13 -76q19 -21 59 -21h22v-18h-282v18h23q42 0 60 26q11 15 11 71v177l-183 279q-16 25 -27 40t-17 21q-11 12 -47 29q-10 5 -29 5v18h284v-18h-14q-23 0 -43 -11
q-19 -10 -19 -32q0 -18 30 -64l139 -214l130 205q29 47 29 69q-1 10 -4.5 19t-10.5 15t-20 9.5t-32 3.5v18zM488 880l-145 -169h-16l51 169h110z" />
    <glyph glyph-name="Thorn" unicode="&#xde;" horiz-adv-x="558" 
d="M206 513h36q74 0 110 -5q26 -5 48 -13t39 -19q18 -11 33 -26t25.5 -33.5t16 -39.5t5.5 -44q0 -38 -14 -69.5t-38 -55.5q-12 -12 -25 -21t-29 -15.5t-35.5 -12t-43.5 -8.5q-9 -1 -32.5 -1.5t-61.5 -0.5h-34v-30q0 -64 16 -82q18 -19 59 -19h20v-18h-283v18h18q45 0 65 28
q10 14 10 72v425q0 55 -5.5 68.5t-23.5 24t-45 10.5h-19v18h283v-18h-20q-21 0 -46 -11q-14 -6 -22 -24q-7 -17 -7 -66v-32zM206 475v-291h21q61 0 93 13q45 19 66 54t21 81q0 28 -9 52t-24 42t-35.5 30t-42.5 15q-9 2 -26 3t-41 1h-23z" />
    <glyph glyph-name="germandbls" unicode="&#xdf;" 
d="M17 0v18q29 2 42 10t17 21q6 15 6 61v363q0 123 45.5 173.5t129.5 50.5q79 0 125.5 -45t46.5 -115q0 -51 -26 -88q-20 -27 -67 -47q66 -19 99.5 -67.5t33.5 -127.5q0 -85 -44.5 -148.5t-119.5 -63.5q-42 0 -68 22q-26 24 -26 56q0 21 10.5 32t28.5 11q19 0 29.5 -10.5
t10.5 -28.5q0 -9 -2 -16q-3 -12 -3 -17q0 -9 8 -16q7 -7 20 -7q29 0 48 26q25 35 25 106q0 51 -9 92t-27 69.5t-45 45.5t-63 19v28q51 0 78 30.5t27 102.5q0 33 -6.5 56.5t-19 38.5t-30 22t-38.5 7q-40 0 -65 -31t-25 -125v-508h-146z" />
    <glyph glyph-name="agrave" unicode="&#xe0;" horiz-adv-x="445" 
d="M286 65q-69 -54 -87 -62q-27 -11 -56 -11q-47 0 -77 31t-30 83q0 33 14 57q20 33 70 63q51 30 166 71v28q0 67 -22 92q-21 25 -62 25q-31 0 -49 -17t-18 -38l1 -28q0 -23 -11.5 -35t-30.5 -12q-18 0 -29.5 12.5t-11.5 34.5q0 42 43 78q44 35 121 35q59 0 98 -20
q29 -16 43 -48q8 -21 8 -86v-162q0 -33 1 -52.5t2 -26.5q2 -14 8 -19t13 -5q8 0 14 3q11 7 39 36v-27q-55 -73 -104 -73q-24 0 -38.5 16t-14.5 57zM286 97v171q-38 -15 -61.5 -25.5t-34.5 -16.5q-39 -22 -55.5 -45.5t-16.5 -51.5q0 -35 21 -58q22 -23 49 -23q37 0 98 49z
M128 681h109l52 -169h-17z" />
    <glyph glyph-name="aacute" unicode="&#xe1;" horiz-adv-x="445" 
d="M286 65q-69 -54 -87 -62q-27 -11 -56 -11q-47 0 -77 31t-30 83q0 33 14 57q20 33 70 63q51 30 166 71v28q0 67 -22 92q-21 25 -62 25q-31 0 -49 -17t-18 -38l1 -28q0 -23 -11.5 -35t-30.5 -12q-18 0 -29.5 12.5t-11.5 34.5q0 42 43 78q44 35 121 35q59 0 98 -20
q29 -16 43 -48q8 -21 8 -86v-162q0 -33 1 -52.5t2 -26.5q2 -14 8 -19t13 -5q8 0 14 3q11 7 39 36v-27q-55 -73 -104 -73q-24 0 -38.5 16t-14.5 57zM286 97v171q-38 -15 -61.5 -25.5t-34.5 -16.5q-39 -22 -55.5 -45.5t-16.5 -51.5q0 -35 21 -58q22 -23 49 -23q37 0 98 49z
M334 681l-145 -169h-16l51 169h110z" />
    <glyph glyph-name="acircumflex" unicode="&#xe2;" horiz-adv-x="445" 
d="M85 625v-55h262v55h-262zM286 65q-35 -27 -56.5 -42.5t-30.5 -19.5q-27 -11 -56 -11q-23 0 -42.5 7t-34.5 24q-30 32 -30 83q0 16 3.5 30.5t10.5 26.5q21 33 70 63q25 15 66.5 32.5t99.5 38.5v18q0 34 -6 56.5t-16 35.5q-21 25 -62 25q-15 0 -27 -4t-22 -13
q-9 -8 -14 -17.5t-4 -20.5l1 -28q1 -23 -11 -35t-31 -12q-18 0 -29.5 12.5t-11.5 34.5q0 42 43 78q22 17 52 26t69 9q60 0 98 -20q14 -7 24.5 -19t18.5 -29q5 -10 6.5 -31.5t1.5 -54.5v-152q0 -63 3 -79q2 -14 8 -19t13 -5q8 0 14 3q6 4 15.5 13t23.5 23v-27
q-53 -72 -104 -72q-24 0 -38.5 15.5t-14.5 56.5zM286 97v171q-38 -15 -62 -25.5t-34 -16.5q-38 -22 -55 -45t-17 -52q0 -35 21 -58q10 -12 22.5 -17.5t26.5 -5.5q37 0 98 49z" />
    <glyph glyph-name="atilde" unicode="&#xe3;" horiz-adv-x="445" 
d="M286 65q-69 -54 -87 -62q-27 -11 -56 -11q-47 0 -77 31t-30 83q0 33 14 57q20 33 70 63q51 30 166 71v28q0 67 -22 92q-21 25 -62 25q-31 0 -49 -17t-18 -38l1 -28q0 -23 -11.5 -35t-30.5 -12q-18 0 -29.5 12.5t-11.5 34.5q0 42 43 78q44 35 121 35q59 0 98 -20
q29 -16 43 -48q8 -21 8 -86v-162q0 -33 1 -52.5t2 -26.5q2 -14 8 -19t13 -5q8 0 14 3q11 7 39 36v-27q-55 -73 -104 -73q-24 0 -38.5 16t-14.5 57zM286 97v171q-38 -15 -61.5 -25.5t-34.5 -16.5q-39 -22 -55.5 -45.5t-16.5 -51.5q0 -35 21 -58q22 -23 49 -23q37 0 98 49z
M83 537h-15q2 68 27.5 97.5t64.5 29.5q20 0 37 -6q21 -8 62 -35t60 -27q16 0 28 14q12 13 19 54h15q0 -23 -3 -40.5t-9 -31.5q-13 -27 -35.5 -41.5t-45.5 -14.5q-38 0 -96 39q-31 21 -42 25q-11 5 -21 5q-20 0 -32 -18q-2 -4 -6 -16.5t-8 -33.5z" />
    <glyph glyph-name="adieresis" unicode="&#xe4;" horiz-adv-x="445" 
d="M286 65q-69 -54 -87 -62q-27 -11 -56 -11q-47 0 -77 31t-30 83q0 33 14 57q20 33 70 63q51 30 166 71v28q0 67 -22 92q-21 25 -62 25q-31 0 -49 -17t-18 -38l1 -28q0 -23 -11.5 -35t-30.5 -12q-18 0 -29.5 12.5t-11.5 34.5q0 42 43 78q44 35 121 35q59 0 98 -20
q29 -16 43 -48q8 -21 8 -86v-162q0 -33 1 -52.5t2 -26.5q2 -14 8 -19t13 -5q8 0 14 3q11 7 39 36v-27q-55 -73 -104 -73q-24 0 -38.5 16t-14.5 57zM286 97v171q-38 -15 -61.5 -25.5t-34.5 -16.5q-39 -22 -55.5 -45.5t-16.5 -51.5q0 -35 21 -58q22 -23 49 -23q37 0 98 49z
M311 655q11 0 20.5 -4t16.5 -11.5t11.5 -17t4.5 -20.5t-4.5 -21t-11.5 -17t-16.5 -11t-20.5 -4t-21 4t-17 11t-11.5 17t-4.5 21t4.5 20.5t11.5 17t17 11.5t21 4zM138 655q11 0 21 -4t17 -11.5t11 -17t4 -20.5q0 -22 -15 -38q-16 -15 -38 -15q-10 0 -20 4t-17.5 11t-11.5 17
t-4 21t4 20.5t11 17t17 11.5t21 4z" />
    <glyph glyph-name="aring" unicode="&#xe5;" horiz-adv-x="445" 
d="M286 65q-69 -54 -87 -62q-27 -11 -56 -11q-47 0 -77 31t-30 83q0 33 14 57q20 33 70 63q51 30 166 71v28q0 67 -22 92q-21 25 -62 25q-31 0 -49 -17t-18 -38l1 -28q0 -23 -11.5 -35t-30.5 -12q-18 0 -29.5 12.5t-11.5 34.5q0 42 43 78q44 35 121 35q59 0 98 -20
q29 -16 43 -48q8 -21 8 -86v-162q0 -33 1 -52.5t2 -26.5q2 -14 8 -19t13 -5q8 0 14 3q11 7 39 36v-27q-55 -73 -104 -73q-24 0 -38.5 16t-14.5 57zM286 97v171q-38 -15 -61.5 -25.5t-34.5 -16.5q-39 -22 -55.5 -45.5t-16.5 -51.5q0 -35 21 -58q22 -23 49 -23q37 0 98 49z
M224 699q39 0 66.5 -27.5t27.5 -66.5t-27.5 -66.5t-66.5 -27.5t-66.5 27.5t-27.5 66.5t27 66q28 28 67 28zM224 665q-25 0 -43 -18q-17 -17 -17 -42q0 -24 17 -42q18 -18 43 -18q26 0 42 18q18 18 18 42q0 26 -18 42q-16 18 -42 18z" />
    <glyph glyph-name="ae" unicode="&#xe6;" horiz-adv-x="669" 
d="M360 278q-1 -13 -1 -22v-14q0 -98 35 -141q36 -41 91 -41q47 0 86 30q24 19 52 78l16 -11q-18 -79 -76 -133q-42 -37 -105 -37q-54 0 -91 22q-17 11 -54 56q-3 -3 -10 -8t-17 -13q-15 -12 -24.5 -19t-14.5 -10q-23 -13 -48.5 -20.5t-53.5 -7.5q-46 0 -78 32
q-31 32 -31 79q0 43 21 73t84 62q38 19 71.5 34t63.5 26v45q0 26 -5 44.5t-14.5 30t-23 16.5t-29.5 5q-32 0 -51 -16q-18 -16 -18 -35q0 -41 -5 -54q-8 -25 -34 -25q-20 0 -30 12q-15 15 -15 35q0 25 18 51q9 13 23.5 24t33.5 19t41.5 13t48.5 5q60 0 91 -18q32 -17 41 -43
q23 30 49 43q35 18 83 18q70 0 114 -48q45 -48 45 -137h-279zM360 310h185q-1 31 -7.5 53t-18.5 36.5t-28.5 21.5t-36.5 7q-39 0 -66 -31q-27 -30 -28 -87zM299 90q-10 21 -17 57q-6 35 -6 70v44q-66 -21 -122 -63q-36 -28 -36 -72q0 -38 23 -63q24 -24 56 -24q18 0 40 10
t62 41z" />
    <glyph glyph-name="ccedilla" unicode="&#xe7;" horiz-adv-x="445" 
d="M413 171q-19 -89 -72 -137q-52 -47 -117 -47q-77 0 -133 63q-57 65 -57 174q0 115 63 182q63 66 151 66q67 0 109 -35q43 -35 43 -73q0 -18 -12 -29.5t-34 -11.5q-29 0 -43 18q-9 11 -12 39q-2 29 -19 45q-17 14 -48 14q-48 0 -79 -36q-39 -48 -39 -127q0 -90 39 -152
q40 -61 107 -61q48 0 86 33q27 22 52 81zM230 8h29l-24 -38q31 -8 46 -26.5t15 -44.5q0 -36 -29 -62q-29 -27 -76 -27q-10 0 -21 0.5t-25 2.5v21q6 -1 12 -1.5t11 -0.5q26 0 42 17q17 16 17 37q0 15 -11 26t-28 11q-2 0 -5.5 -0.5t-7.5 -0.5z" />
    <glyph glyph-name="egrave" unicode="&#xe8;" horiz-adv-x="445" 
d="M107 280q-1 -100 48.5 -157t114.5 -57q45 0 77.5 24.5t54.5 82.5l15 -9q-10 -67 -60 -122q-49 -55 -124 -55q-80 0 -138 62q-58 63 -58 170q0 115 59 179q60 65 148 65q76 0 124 -50q49 -49 49 -133h-310zM107 308h208q-2 43 -11 61q-12 27 -36 43t-51 16q-40 0 -73 -32
q-32 -32 -37 -88zM104 719h109l52 -169h-17z" />
    <glyph glyph-name="eacute" unicode="&#xe9;" horiz-adv-x="445" 
d="M107 280q-1 -100 48.5 -157t114.5 -57q45 0 77.5 24.5t54.5 82.5l15 -9q-10 -67 -60 -122q-49 -55 -124 -55q-80 0 -138 62q-58 63 -58 170q0 115 59 179q60 65 148 65q76 0 124 -50q49 -49 49 -133h-310zM107 308h208q-2 43 -11 61q-12 27 -36 43t-51 16q-40 0 -73 -32
q-32 -32 -37 -88zM366 708l-145 -169h-16l51 169h110z" />
    <glyph glyph-name="ecircumflex" unicode="&#xea;" horiz-adv-x="445" 
d="M105 625v-55h262v55h-262zM107 280q-2 -99 48 -157q49 -57 115 -57q44 0 76.5 24.5t55.5 82.5l15 -9q-10 -68 -60 -122q-49 -55 -124 -55q-81 0 -138 62q-29 32 -43.5 74t-14.5 96q0 115 59 179q61 65 148 65q75 0 124 -50q49 -49 49 -133h-310zM107 308h208
q-1 22 -3.5 37t-7.5 24q-6 14 -15.5 25t-21 18.5t-24.5 11.5t-26 4q-41 0 -73 -32t-37 -88z" />
    <glyph glyph-name="edieresis" unicode="&#xeb;" horiz-adv-x="445" 
d="M107 280q-1 -100 48.5 -157t114.5 -57q45 0 77.5 24.5t54.5 82.5l15 -9q-10 -67 -60 -122q-49 -55 -124 -55q-80 0 -138 62q-58 63 -58 170q0 115 59 179q60 65 148 65q76 0 124 -50q49 -49 49 -133h-310zM107 308h208q-2 43 -11 61q-12 27 -36 43t-51 16q-40 0 -73 -32
q-32 -32 -37 -88zM329 655q11 0 20.5 -4t16.5 -11.5t11.5 -17t4.5 -20.5t-4.5 -21t-11.5 -17t-16.5 -11t-20.5 -4t-21 4t-17 11t-11.5 17t-4.5 21t4.5 20.5t11.5 17t17 11.5t21 4zM156 655q11 0 21 -4t17 -11.5t11 -17t4 -20.5q0 -22 -15 -38q-16 -15 -38 -15q-10 0 -20 4
t-17.5 11t-11.5 17t-4 21t4 20.5t11 17t17 11.5t21 4z" />
    <glyph glyph-name="igrave" unicode="&#xec;" horiz-adv-x="279" 
d="M186 462v-361q0 -43 6 -56q6 -14 18 -21q12 -6 44 -6v-18h-218v18q34 0 44 6q12 6 18 21q3 7 5 21t2 35v173q0 37 -1.5 61t-3.5 34q-3 16 -10 22t-20 6q-8 0 -16 -2t-18 -5l-7 17l136 55h21zM34 700h109l52 -169h-17z" />
    <glyph glyph-name="iacute" unicode="&#xed;" horiz-adv-x="279" 
d="M186 462v-361q0 -43 6 -56q7 -14 18 -21q13 -6 44 -6v-18h-218v18q34 0 44 6q12 7 18 21q7 15 7 56v173q0 74 -5 95q-3 16 -10.5 22t-19.5 6q-14 0 -34 -7l-7 17l136 55h21zM246 681l-145 -169h-16l51 169h110z" />
    <glyph glyph-name="icircumflex" unicode="&#xee;" horiz-adv-x="279" 
d="M12 635v-55h252v55h-252zM186 462v-361q0 -43 6 -56q6 -14 18 -21q12 -6 44 -6v-18h-218v18q34 0 44 6q12 6 18 21q3 7 5 21t2 35v173q0 37 -1.5 61t-3.5 34q-3 16 -10 22t-20 6q-8 0 -16 -2t-18 -5l-7 17l136 55h21z" />
    <glyph glyph-name="idieresis" unicode="&#xef;" horiz-adv-x="279" 
d="M186 462v-361q0 -43 6 -56q7 -14 18 -21q13 -6 44 -6v-18h-218v18q34 0 44 6q12 7 18 21q7 15 7 56v173q0 74 -5 95q-3 16 -10.5 22t-19.5 6q-14 0 -34 -7l-7 17l136 55h21zM229 655q11 0 20.5 -4t16.5 -11.5t11.5 -17t4.5 -20.5t-4.5 -21t-11.5 -17t-16.5 -11t-20.5 -4
t-21 4t-17 11t-11.5 17t-4.5 21t4.5 20.5t11.5 17t17 11.5t21 4zM56 655q11 0 21 -4t17 -11.5t11 -17t4 -20.5q0 -22 -15 -38q-16 -15 -38 -15q-10 0 -20 4t-17.5 11t-11.5 17t-4 21t4 20.5t11 17t17 11.5t21 4z" />
    <glyph glyph-name="eth" unicode="&#xf0;" 
d="M230 573l-121 -66l-15 27l114 64q-32 33 -49 46q-15 14 -43 32l13 21q30 -15 60 -34t61 -42l122 68l17 -27l-112 -64q92 -80 140 -178q48 -97 48 -188q0 -68 -28 -125t-79 -89q-51 -31 -114 -31q-87 0 -149 65q-62 66 -62 164q0 103 68 179q58 63 138 63q25 0 43 -6
q16 -6 40 -23q-39 81 -92 144zM235 428q-47 0 -79 -39q-32 -41 -32 -135q0 -67 20 -123q10 -28 23.5 -49t30 -34.5t34.5 -20t36 -6.5q45 0 75 38q31 39 31 126q0 110 -38.5 176.5t-100.5 66.5z" />
    <glyph glyph-name="ntilde" unicode="&#xf1;" 
d="M162 367q79 95 151 95q36 0 62.5 -18t42.5 -61q11 -29 11 -90v-192q0 -41 7 -57q4 -13 17 -20q12 -6 44 -6v-18h-222v18h10q15 0 25.5 2.5t18 7t11 11.5t6.5 16q2 7 2 46v184q0 61 -16 89t-54 28q-58 0 -116 -64v-237q0 -44 6 -56q6 -14 18 -21q12 -6 49 -6v-18h-222v18
h10q34 0 46 17t12 66v167q0 80 -4 98q-3 18 -10.5 24.5t-20.5 6.5q-14 0 -33 -7l-7 17l135 55h21v-95zM110 537h-15q2 68 27.5 97.5t64.5 29.5q20 0 37 -6q21 -8 62 -35t60 -27q16 0 28 14q12 13 19 54h15q0 -23 -3 -40.5t-9 -31.5q-13 -27 -35.5 -41.5t-45.5 -14.5
q-38 0 -96 39q-31 21 -42 25q-11 5 -21 5q-20 0 -32 -18q-2 -4 -6 -16.5t-8 -33.5z" />
    <glyph glyph-name="ograve" unicode="&#xf2;" 
d="M251 462q102 0 164 -77q52 -67 52 -152q0 -60 -29 -122t-79.5 -93t-113.5 -31q-101 0 -161 80q-50 68 -50 153q0 61 30 122q32 62 81 91q50 29 106 29zM236 430q-26 0 -53 -15q-26 -16 -42 -54.5t-16 -99.5q0 -98 38.5 -169t103.5 -71q47 0 78 39t31 135q0 120 -52 188
q-34 47 -88 47zM148 681h109l52 -169h-17z" />
    <glyph glyph-name="oacute" unicode="&#xf3;" 
d="M251 462q102 0 164 -77q52 -67 52 -152q0 -60 -29 -122t-79.5 -93t-113.5 -31q-101 0 -161 80q-50 68 -50 153q0 61 30 122q32 62 81 91q50 29 106 29zM236 430q-26 0 -53 -15q-26 -16 -42 -54.5t-16 -99.5q0 -98 38.5 -169t103.5 -71q47 0 78 39t31 135q0 120 -52 188
q-34 47 -88 47zM354 681l-145 -169h-16l51 169h110z" />
    <glyph glyph-name="ocircumflex" unicode="&#xf4;" 
d="M120 635v-55h252v55h-252zM251 462q102 0 164 -77q25 -33 38.5 -71t13.5 -81q0 -60 -29 -122t-80 -93t-113 -31q-100 0 -161 80q-50 68 -50 153q0 61 30 122q16 31 36 53.5t45 37.5q50 29 106 29zM236 430q-25 0 -53 -15q-26 -16 -42 -54.5t-16 -99.5q0 -96 39 -169
q39 -71 103 -71q47 0 78 39q31 38 31 135q0 119 -52 188q-35 47 -88 47z" />
    <glyph glyph-name="otilde" unicode="&#xf5;" 
d="M251 462q102 0 164 -77q52 -67 52 -152q0 -60 -29 -122t-79.5 -93t-113.5 -31q-101 0 -161 80q-50 68 -50 153q0 61 30 122q32 62 81 91q50 29 106 29zM236 430q-26 0 -53 -15q-26 -16 -42 -54.5t-16 -99.5q0 -98 38.5 -169t103.5 -71q47 0 78 39t31 135q0 120 -52 188
q-34 47 -88 47zM109 537h-15q2 68 27.5 97.5t64.5 29.5q20 0 37 -6q21 -8 62 -35t60 -27q16 0 28 14q12 13 19 54h15q0 -23 -3 -40.5t-9 -31.5q-13 -27 -35.5 -41.5t-45.5 -14.5q-38 0 -96 39q-31 21 -42 25q-11 5 -21 5q-20 0 -32 -18q-2 -4 -6 -16.5t-8 -33.5z" />
    <glyph glyph-name="odieresis" unicode="&#xf6;" 
d="M251 462q102 0 164 -77q52 -67 52 -152q0 -60 -29 -122t-79.5 -93t-113.5 -31q-101 0 -161 80q-50 68 -50 153q0 61 30 122q32 62 81 91q50 29 106 29zM236 430q-26 0 -53 -15q-26 -16 -42 -54.5t-16 -99.5q0 -98 38.5 -169t103.5 -71q47 0 78 39t31 135q0 120 -52 188
q-34 47 -88 47zM337 655q11 0 20.5 -4t16.5 -11.5t11.5 -17t4.5 -20.5t-4.5 -21t-11.5 -17t-16.5 -11t-20.5 -4t-21 4t-17 11t-11.5 17t-4.5 21t4.5 20.5t11.5 17t17 11.5t21 4zM164 655q11 0 21 -4t17 -11.5t11 -17t4 -20.5q0 -22 -15 -38q-16 -15 -38 -15q-10 0 -20 4
t-17.5 11t-11.5 17t-4 21t4 20.5t11 17t17 11.5t21 4z" />
    <glyph glyph-name="divide" unicode="&#xf7;" horiz-adv-x="551" 
d="M275 527q18 0 30.5 -12.5t12.5 -30.5t-12.5 -30.5t-30.5 -12.5t-30.5 12.5t-12.5 30.5t12.5 30.5t30.5 12.5zM539 314h-528v40h528v-40zM275 223q18 0 30.5 -13t12.5 -30q0 -9 -3 -17t-9 -13.5t-14 -9t-17 -3.5q-8 0 -16 3.5t-14 9t-9.5 13.5t-3.5 17q0 17 12.5 30
t30.5 13z" />
    <glyph glyph-name="oslash" unicode="&#xf8;" 
d="M395 408l65 72l23 -21l-67 -75q52 -66 52 -153q0 -58 -28 -120t-78 -93t-114 -31q-41 0 -72 13q-31 12 -68 42l-66 -74l-23 21l69 77q-24 30 -38 75q-14 43 -14 82q0 58 30 118q30 59 79.5 90t109.5 31q40 0 73 -12.5t67 -41.5zM345 352q-25 43 -49.5 60.5t-56.5 17.5
q-48 0 -80 -39.5t-32 -129.5q0 -61 19 -129zM359 320l-198 -220q26 -46 49 -62q24 -17 58 -17q49 0 79 39q31 39 31 137q0 60 -19 123z" />
    <glyph glyph-name="ugrave" unicode="&#xf9;" 
d="M425 459v-282q0 -79 3 -96q4 -17 12 -24t19 -7q15 0 34 9l7 -17l-134 -55h-22v94q-58 -62 -88 -79q-31 -15 -64 -15q-38 0 -66 21q-27 22 -38 56t-11 97v211q0 31 -7 44q-6 11 -20.5 18t-48.5 7v18h157v-311q0 -62 22 -82q21 -19 53 -19q10 0 22 2.5t25.5 10t29.5 20
t34 30.5v265q0 38 -14 51q-14 14 -58 15v18h153zM151 681h109l52 -169h-17z" />
    <glyph glyph-name="uacute" unicode="&#xfa;" 
d="M425 459v-282q0 -79 3 -96q4 -17 12 -24t19 -7q15 0 34 9l7 -17l-134 -55h-22v94q-58 -62 -88 -79q-31 -15 -64 -15q-38 0 -66 21q-27 22 -38 56t-11 97v211q0 31 -7 44q-6 11 -20.5 18t-48.5 7v18h157v-311q0 -62 22 -82q21 -19 53 -19q10 0 22 2.5t25.5 10t29.5 20
t34 30.5v265q0 38 -14 51q-14 14 -58 15v18h153zM343 681l-145 -169h-16l51 169h110z" />
    <glyph glyph-name="ucircumflex" unicode="&#xfb;" 
d="M120 635v-55h252v55h-252zM425 449v-272q0 -79 3 -96q4 -17 12 -24t19 -7q7 0 16 2t18 7l7 -17l-134 -55h-22v94q-29 -31 -51 -51t-37 -28q-31 -15 -64 -15q-38 0 -66 21t-38 56q-6 17 -8.5 41.5t-2.5 55.5v201q0 16 -2 26.5t-5 17.5q-6 12 -21 18q-6 4 -18.5 5.5
t-29.5 1.5v18h157v-301q0 -63 22 -82q20 -19 53 -19q11 0 22.5 3t25 10.5t29.5 19.5t34 30v255q0 37 -14 51q-16 14 -58 15v18h153z" />
    <glyph glyph-name="udieresis" unicode="&#xfc;" 
d="M425 459v-282q0 -79 3 -96q4 -17 12 -24t19 -7q15 0 34 9l7 -17l-134 -55h-22v94q-58 -62 -88 -79q-31 -15 -64 -15q-38 0 -66 21q-27 22 -38 56t-11 97v211q0 31 -7 44q-6 11 -20.5 18t-48.5 7v18h157v-311q0 -62 22 -82q21 -19 53 -19q10 0 22 2.5t25.5 10t29.5 20
t34 30.5v265q0 38 -14 51q-14 14 -58 15v18h153zM337 655q11 0 20.5 -4t16.5 -11.5t11.5 -17t4.5 -20.5t-4.5 -21t-11.5 -17t-16.5 -11t-20.5 -4t-21 4t-17 11t-11.5 17t-4.5 21t4.5 20.5t11.5 17t17 11.5t21 4zM164 655q11 0 21 -4t17 -11.5t11 -17t4 -20.5q0 -22 -15 -38
q-16 -15 -38 -15q-10 0 -20 4t-17.5 11t-11.5 17t-4 21t4 20.5t11 17t17 11.5t21 4z" />
    <glyph glyph-name="yacute" unicode="&#xfd;" 
d="M6 470h209v-18h-10q-22 0 -33 -9.5t-11 -24.5q0 -19 16 -53l109 -236l101 258q8 21 8 40q0 9 -4 13q-3 5 -11.5 8.5t-29.5 3.5v18h146v-18q-19 -3 -28 -8q-10 -7 -22 -22q-2 -4 -6 -13t-10 -25l-183 -457q-27 -65 -70 -98q-43 -34 -82 -34q-29 0 -47 17q-19 17 -19 38
t13.5 33.5t36.5 12.5q17 0 44 -11q21 -7 25 -7q15 0 32 15t35 59l32 77l-161 348q-4 8 -9.5 17.5t-14.5 20.5q-6 8 -11 14t-9 9q-10 8 -36 14v18zM359 681l-145 -169h-16l51 169h110z" />
    <glyph glyph-name="thorn" unicode="&#xfe;" 
d="M0 641l137 56h19v-342q17 30 34.5 50.5t35.5 33t36 18t37 5.5q68 0 113 -53q55 -65 55 -168q0 -117 -66 -192q-55 -62 -138 -62q-37 0 -63 11q-20 5 -44 28v-136q0 -44 5 -58q6 -12 20 -19q14 -8 51 -8v-18h-234v18h11q27 0 46 10q9 5 14 18q5 12 5 60v660q0 43 -3 56
q-4 12 -13 18t-23 6q-11 0 -30 -8zM156 326v-167q0 -55 4 -72q7 -28 34 -50q27 -21 67 -21q50 0 80 38q39 50 39 141q0 102 -45 158q-31 38 -74 38q-24 0 -47 -12q-18 -9 -58 -53z" />
    <glyph glyph-name="ydieresis" unicode="&#xff;" 
d="M6 470h209v-18h-10q-22 0 -33 -9.5t-11 -24.5q0 -19 16 -53l109 -236l101 258q8 21 8 40q0 9 -4 13q-3 5 -11.5 8.5t-29.5 3.5v18h146v-18q-19 -3 -28 -8q-10 -7 -22 -22q-2 -4 -6 -13t-10 -25l-183 -457q-27 -65 -70 -98q-43 -34 -82 -34q-29 0 -47 17q-19 17 -19 38
t13.5 33.5t36.5 12.5q17 0 44 -11q21 -7 25 -7q15 0 32 15t35 59l32 77l-161 348q-4 8 -9.5 17.5t-14.5 20.5q-6 8 -11 14t-9 9q-10 8 -36 14v18zM355 655q11 0 20.5 -4t16.5 -11.5t11.5 -17t4.5 -20.5t-4.5 -21t-11.5 -17t-16.5 -11t-20.5 -4t-21 4t-17 11t-11.5 17
t-4.5 21t4.5 20.5t11.5 17t17 11.5t21 4zM182 655q11 0 21 -4t17 -11.5t11 -17t4 -20.5q0 -22 -15 -38q-16 -15 -38 -15q-10 0 -20 4t-17.5 11t-11.5 17t-4 21t4 20.5t11 17t17 11.5t21 4z" />
    <glyph glyph-name="FL265" unicode="&#xe008;" horiz-adv-x="445" 
d="M107 280q-1 -100 48.5 -157t114.5 -57q45 0 77.5 24.5t54.5 82.5l15 -9q-10 -67 -60 -122q-49 -55 -124 -55q-80 0 -138 62q-58 63 -58 170q0 115 59 179q60 65 148 65q76 0 124 -50q49 -49 49 -133h-310zM107 308h208q-2 43 -11 61q-12 27 -36 43t-51 16q-40 0 -73 -32
q-32 -32 -37 -88zM140 681h109l52 -169h-17z" />
    <glyph glyph-name="FL266" unicode="&#xe009;" horiz-adv-x="445" 
d="M107 280q-1 -100 48.5 -157t114.5 -57q45 0 77.5 24.5t54.5 82.5l15 -9q-10 -67 -60 -122q-49 -55 -124 -55q-80 0 -138 62q-58 63 -58 170q0 115 59 179q60 65 148 65q76 0 124 -50q49 -49 49 -133h-310zM107 308h208q-2 43 -11 61q-12 27 -36 43t-51 16q-40 0 -73 -32
q-32 -32 -37 -88zM341 681l-145 -169h-16l51 169h110z" />
    <glyph glyph-name="FL0128" 
d="M415 361h-281q-2 -20 -2 -41h271l-12 -38h-258q4 -103 41 -172q44 -81 118 -81q66 0 110 34q27 20 67 77l15 -10q-21 -34 -40 -57.5t-36 -37.5q-57 -46 -136 -46q-112 0 -174 93q-50 75 -60 200h-48l10 38h36v8q0 8 0.5 16t0.5 17h-47l10 38h41q17 116 80 192
q72 87 184 87q84 0 166 -43v-147h-19q-12 158 -147 158q-78 0 -123 -82q-34 -64 -45 -165h289z" />
    <glyph glyph-name="FL264" unicode="&#xe007;" horiz-adv-x="279" 
d="M99 679h90l93 -163h-15l-134 105l-112 -105h-15zM186 462v-361q0 -43 6 -56q7 -14 18 -21q13 -6 44 -6v-18h-218v18q34 0 44 6q12 7 18 21q7 15 7 56v173q0 74 -5 95q-3 16 -10.5 22t-19.5 6q-14 0 -34 -7l-7 17l136 55h21z" />
    <glyph glyph-name="FL257" unicode="&#xe001;" 
d="M389 499l70 70l29 -28l-71 -69q50 -64 50 -138q0 -75 -50 -139l71 -71l-29 -27l-70 70q-65 -50 -132 -50q-43 0 -85 14q-40 16 -60 36l-71 -70l-28 27l71 71q-50 57 -50 138q0 77 50 139l-71 69l28 28l71 -70q25 22 65 36t75 14q17 0 35 -3t36 -9.5t35 -15.5t31 -22z
M251 510q-74 0 -126 -53q-52 -52 -52 -125q0 -72 52 -124t125 -52t125.5 52.5t52.5 124.5q0 44 -24 87q-24 44 -66 67t-87 23z" />
    <glyph glyph-name="FL230" unicode="&#xe000;" 
d="M415 361h-281q-2 -20 -2 -41h271l-12 -38h-258q4 -103 41 -172q44 -81 118 -81q66 0 110 34q27 20 67 77l15 -10q-21 -34 -40 -57.5t-36 -37.5q-57 -46 -136 -46q-112 0 -174 93q-50 75 -60 200h-48l10 38h36v8q0 8 0.5 16t0.5 17h-47l10 38h41q17 116 80 192
q72 87 184 87q84 0 166 -43v-147h-19q-12 158 -147 158q-78 0 -123 -82q-34 -64 -45 -165h289z" />
    <glyph glyph-name="nonmarkingreturn" unicode="&#xe004;" horiz-adv-x="279" 
d="M12 625v-55h252v55h-252zM186 462v-361q0 -43 6 -56q6 -14 18 -21q12 -6 44 -6v-18h-218v18q34 0 44 6q12 6 18 21q3 7 5 21t2 35v173q0 37 -1.5 61t-3.5 34q-3 16 -10 22t-20 6q-8 0 -16 -2t-18 -5l-7 17l136 55h21z" />
    <glyph glyph-name="FL262" unicode="&#xe005;" horiz-adv-x="279" 
d="M12 625v-55h252v55h-252zM186 462v-361q0 -43 6 -56q6 -14 18 -21q12 -6 44 -6v-18h-218v18q34 0 44 6q12 6 18 21q3 7 5 21t2 35v173q0 37 -1.5 61t-3.5 34q-3 16 -10 22t-20 6q-8 0 -16 -2t-18 -5l-7 17l136 55h21z" />
    </font>
</defs>
</svg>
